<?xml version="1.0" standalone="no"?>
<!DOCTYPE svg PUBLIC "-//W3C//DTD SVG 1.1//EN" "http://www.w3.org/Graphics/SVG/1.1/DTD/svg11.dtd" >
<svg xmlns="http://www.w3.org/2000/svg">
<metadata>
This is a custom SVG webfont generated by Font Squirrel.
Copyright   : Copyright  by Binnenland 2006 All rights reserved This software may not be reproduced used displayed modified disclosed or transferred without the express written approval of Binnenland
Designer    : Binnenland Michael Mischler  Niklaus Thoenen
Foundry URL : wwwbinnenlandch
</metadata>
<defs>
<font id="CatalogProItalic" horiz-adv-x="1327" >
<font-face units-per-em="2048" ascent="1536" descent="-512" />
<missing-glyph horiz-adv-x="587" />
<glyph unicode=" "  horiz-adv-x="587" />
<glyph unicode="&#x09;" horiz-adv-x="587" />
<glyph unicode="&#xa0;" horiz-adv-x="587" />
<glyph unicode="!" horiz-adv-x="491" d="M96 94q10 53 51 88t93 35q49 0 77.5 -36t20.5 -87t-50 -87t-93 -36q-49 0 -78 36t-21 87zM225 430l125 920h176l-196 -920h-105z" />
<glyph unicode="&#x22;" horiz-adv-x="585" d="M244 1014l73 428h148l-172 -428h-49zM492 1014l69 428h150l-174 -428h-45z" />
<glyph unicode="#" horiz-adv-x="1280" d="M100 -53l248 499h-242l15 82h266l162 332h-322l15 82h346l227 463h86l-227 -463h317l228 463h86l-228 -463h248l-14 -82h-273l-164 -332h330l-14 -82h-354l-248 -499h-84l248 499h-320l-246 -499h-86zM471 528h320l161 332h-317z" />
<glyph unicode="$" horiz-adv-x="999" d="M72 119l39 246h118q-10 -170 46.5 -245t173.5 -75q121 0 201.5 67.5t101.5 180.5q18 117 -58 178l-362 266q-137 104 -105 303q23 135 136.5 225.5t279.5 100.5l29 160h71l-28 -158q227 -12 321 -133l-43 -248h-123q16 178 -34 247t-168 69q-121 0 -194 -68t-87 -166 q-16 -106 64 -166l350 -254q156 -113 119 -315q-23 -143 -145 -243.5t-298 -110.5l-28 -156h-72l26 153q-125 6 -210.5 45.5t-120.5 96.5z" />
<glyph unicode="%" horiz-adv-x="1398" d="M193 995q29 168 119.5 261.5t199.5 93.5q111 0 168 -89.5t29 -265.5q-31 -170 -122 -263t-200 -93q-111 0 -169 90t-25 266zM315 995q-53 -295 82 -295t189 295q55 293 -86 293q-136 0 -185 -293zM336 -53l768 1458h86l-766 -1458h-88zM834 356q31 170 122 262.5 t197 92.5q113 0 171 -89.5t26 -265.5q-29 -170 -119 -263t-201 -93q-109 0 -167 91t-29 265zM947.5 155.5q15.5 -92.5 94.5 -92.5q139 0 185 293q55 295 -84 295q-133 0 -187 -295q-24 -108 -8.5 -200.5z" />
<glyph unicode="&#x26;" horiz-adv-x="1183" d="M109 377q23 133 115.5 233.5t207.5 122.5q-145 92 -108 293q27 154 140.5 248t270.5 94q100 0 188.5 -34t131.5 -93l-39 -233h-117q14 168 -30 232.5t-146 64.5q-100 0 -160.5 -69t-79.5 -177q-25 -129 10 -221.5t140 -92.5l-10 -59h-23q-127 0 -207 -87t-102 -224 q-29 -164 32.5 -246t184.5 -82q133 0 216 80t103 195q10 70 -4 128t-57 74h-125l10 62h455l-10 -62h-129q25 -29 34 -86t-2 -106q-27 -150 -162 -252.5t-341 -102.5q-193 0 -307.5 99.5t-79.5 300.5z" />
<glyph unicode="'" horiz-adv-x="337" d="M244 1014l69 428h152l-172 -428h-49z" />
<glyph unicode="(" horiz-adv-x="563" d="M221 639q96 537 484 770l26 -29q-121 -88 -222 -290.5t-144 -448.5q-41 -250 -10.5 -450.5t120.5 -288.5l-37 -29q-309 234 -217 766z" />
<glyph unicode=")" horiz-adv-x="563" d="M-14 -98q121 88 223 291.5t143 447.5q43 250 11.5 450.5t-121.5 288.5l34 29q311 -236 220 -770q-94 -530 -486 -766z" />
<glyph unicode="*" horiz-adv-x="956" d="M190 809l367 147l-315 150l90 119l254 -230l22 375h135l-112 -375l336 228l47 -117l-367 -150l316 -147l-86 -119l-259 230l-20 -381h-135l110 381l-335 -232z" />
<glyph unicode="+" horiz-adv-x="1005" d="M133 496l12 79h371l68 381h78l-66 -381h371l-13 -79h-370l-68 -377h-78l66 377h-371z" />
<glyph unicode="," horiz-adv-x="450" d="M-2 -221q63 37 100 67q74 63 84 134q-8 -2 -24 -3q-43 0 -71 36t-19 81q10 51 48 83t91 32t82.5 -43t13.5 -127q-25 -123 -131 -211q-33 -29 -68.5 -51.5t-54.5 -30.5l-18 -8z" />
<glyph unicode="-" horiz-adv-x="616" d="M129 498l12 80h441l-13 -80h-440z" />
<glyph unicode="." horiz-adv-x="438" d="M61.5 94q8.5 51 50.5 87t95 36q49 0 76.5 -36t19.5 -87q-10 -53 -51 -88t-92 -35q-49 0 -78 36t-20.5 87z" />
<glyph unicode="/" horiz-adv-x="854" d="M25 -53l843 1458h84l-843 -1458h-84z" />
<glyph unicode="0" horiz-adv-x="1224" d="M178 580q61 356 236.5 545.5t392.5 189.5q195 0 300 -153.5t56 -442.5q-61 -358 -235 -547.5t-393 -189.5q-211 0 -304.5 177t-52.5 421zM361.5 549q-7.5 -115 6 -235.5t71 -193.5t157.5 -73q279 0 356 467q25 131 30 250t-9.5 233.5t-70.5 183t-152 68.5 q-281 0 -361 -461q-20 -124 -27.5 -239z" />
<glyph unicode="1" horiz-adv-x="847" d="M143 2l13 72h186l178 1042l-209 -121l-28 64l391 239h37l-211 -1224h186l-14 -72h-529z" />
<glyph unicode="2" horiz-adv-x="1011" d="M59 2l13 68l434 419q276 268 309 463q23 123 -30.5 201t-163.5 78q-90 0 -179.5 -48t-152.5 -130l-68 43q178 225 422 225q164 0 269.5 -94t74.5 -269q-10 -63 -36.5 -119.5t-79 -114.5t-94.5 -97l-125 -112l-128 -114l-254 -239h598l-28 -160h-781z" />
<glyph unicode="3" horiz-adv-x="1024" d="M31 152l71 55q86 -135 293 -135q129 0 244 100t115 279q0 106 -63.5 163.5t-172.5 57.5h-61l10 65q129 0 246.5 93.5t117.5 259.5q0 94 -55 141t-145 47q-197 0 -336 -172l-62 45q178 221 414 221q141 0 242.5 -75.5t101.5 -217.5q0 -109 -73.5 -212t-180.5 -148 q193 -70 193 -252q0 -96 -36 -178t-93.5 -138.5t-130 -96.5t-146 -58.5t-143.5 -18.5q-239 1 -350 175z" />
<glyph unicode="4" horiz-adv-x="1159" d="M100 299l13 84l794 915h99l-156 -862h225l-22 -137h-226l-49 -297h-151l47 297h-574zM248 436h450l117 651z" />
<glyph unicode="5" horiz-adv-x="1064" d="M113 145l71 60q80 -131 277 -131q119 0 212 83t122 251q20 125 -39.5 196.5t-175.5 71.5h-320l209 622h590l-29 -159h-538l-107 -322h223q88 0 158 -21.5t122 -67.5t72.5 -128t2.5 -192q-33 -199 -189 -313.5t-330 -114.5q-225 -1 -331 165z" />
<glyph unicode="6" horiz-adv-x="1132" d="M199 578q61 346 258.5 545.5t410.5 199.5q188 0 295 -152l-71 -55q-68 117 -238 117q-160 0 -276.5 -150.5t-165.5 -377.5q31 51 122 101t187 50q186 0 288.5 -112.5t65.5 -333.5q-31 -182 -182.5 -305t-323.5 -123q-152 0 -247 88t-122.5 221t-0.5 287zM377 526 q-29 -215 18 -347t189 -132q109 0 201 103.5t118 257.5q31 180 -24.5 276t-171.5 96q-88 0 -186.5 -67.5t-143.5 -186.5z" />
<glyph unicode="7" horiz-adv-x="968" d="M197 971l57 327h815l-12 -71l-690 -1225h-105l645 1139h-536l-107 -170h-67z" />
<glyph unicode="8" horiz-adv-x="1161" d="M162 358q23 127 111.5 216.5t205.5 119.5q-76 25 -128 108t-34 183q31 180 162 264t297 84t267.5 -84t70.5 -264q-18 -100 -98 -183t-166 -108q106 -31 164.5 -120t38.5 -216q-35 -197 -182.5 -294t-331.5 -97q-186 0 -298 97t-79 294zM336 356q-27 -162 33.5 -242.5 t181.5 -80.5t209 81t117 242q23 133 -34 216t-184 83q-129 0 -213.5 -83t-109.5 -216zM481 985q-20 -115 33 -188.5t155.5 -73.5t181.5 73.5t101 188.5q20 135 -32 208t-156.5 73t-182 -73t-100.5 -208z" />
<glyph unicode="9" horiz-adv-x="1134" d="M170 127l70 55q66 -109 241 -108q152 0 261.5 146.5t160.5 373.5q-33 -51 -123 -101.5t-186 -50.5q-186 0 -289.5 113t-66.5 334q31 180 183 304t322 124q223 0 318.5 -178t52.5 -420q-59 -346 -249.5 -545t-399.5 -199q-193 0 -295 152zM410 891q-31 -180 24 -276.5 t172 -96.5q90 0 187.5 66.5t144.5 187.5q27 215 -20.5 347t-188.5 132q-106 0 -199 -103t-120 -257z" />
<glyph unicode=":" horiz-adv-x="438" d="M67.5 94q8.5 51 50.5 87t93 36t78.5 -35t17.5 -88q-8 -51 -49 -87t-92 -36t-79 36t-19.5 87zM193 803q6 51 48 87t93 36q49 0 77.5 -36t20.5 -87q-10 -53 -50 -88t-91 -35t-79.5 36t-18.5 87z" />
<glyph unicode=";" horiz-adv-x="450" d="M2 -221q63 37 100 67q74 63 84 134q-8 -2 -24 -3q-43 0 -71 36t-19 81q10 51 48 83t91 32t83 -43t13 -127q-25 -123 -131 -211q-33 -29 -68.5 -51.5t-54.5 -30.5l-18 -8zM188.5 803q8.5 51 50.5 86t93 35q49 0 76.5 -35t19.5 -86q-10 -53 -50 -88t-91 -35q-49 0 -78 36 t-20.5 87z" />
<glyph unicode="&#x3c;" horiz-adv-x="1005" d="M131 492l16 88l879 329l-14 -86l-772 -286l671 -289l-16 -86z" />
<glyph unicode="=" horiz-adv-x="1005" d="M109 367l14 82h821l-14 -82h-821zM154 629l16 82h821l-16 -82h-821z" />
<glyph unicode="&#x3e;" horiz-adv-x="1005" d="M72 162l16 86l766 289l-666 286l15 86l766 -329l-17 -88z" />
<glyph unicode="?" horiz-adv-x="966" d="M203 989l45 246q68 61 175 99t226 38q180 0 272.5 -93t65.5 -237q-4 -23 -10 -45l-11 -40q-5 -17 -17.5 -36.5t-18.5 -30.5t-22.5 -29.5t-21.5 -26t-25.5 -24.5t-25 -21.5t-28 -24t-25.5 -21.5l-170 -145q-100 -86 -114 -168h-90q18 98 44.5 139t116.5 129l168 162 q80 80 101 211q16 98 -31 165t-168 67t-202 -69t-128 -245h-106zM278.5 94q8.5 51 51.5 87t94 36q49 0 76.5 -36t19.5 -87q-10 -53 -51 -88t-92 -35q-49 0 -78 36t-20.5 87z" />
<glyph unicode="@" horiz-adv-x="1959" d="M135 459q43 248 200 459.5t385 334.5t472 123q367 0 571.5 -237.5t145.5 -579.5q-41 -236 -202 -413t-339 -177q-211 0 -213 150q-143 -141 -317 -142q-106 0 -173 39t-89.5 104.5t-18.5 141.5t33 162q66 211 214 366.5t351 155.5q162 0 207 -104l27 84h153l-219 -674 q-31 -92 -13.5 -148.5t83.5 -56.5q139 0 266 156.5t164 355.5q51 309 -132.5 527.5t-512.5 218.5q-334 0 -615.5 -249t-341 -597t136 -597t529.5 -249q145 0 294.5 56.5t250.5 154.5l45 -53q-117 -106 -281 -168t-324 -62q-371 0 -587 269.5t-150 648.5zM733 207 q4 -72 38 -115t97 -43q98 0 186.5 61.5t127.5 184.5l108 336q43 129 -7 187.5t-148 58.5q-229 0 -349 -347q-29 -88 -43 -169.5t-10 -153.5z" />
<glyph unicode="A" horiz-adv-x="1304" d="M-35 0l12 74h166l664 1276h90l223 -1276h117l-12 -74h-416l12 74h125l-76 422h-421l-222 -422h166l-12 -74h-416zM487 575h367l-92 529z" />
<glyph unicode="B" horiz-adv-x="1222" d="M20 0l13 74h176l209 1202h-176l14 74h631q145 0 223 -97q60 -75 60 -175q0 -29 -5 -60q-12 -82 -75.5 -161t-145.5 -118q104 -33 158 -126q36 -64 36 -145q0 -38 -8 -79q-29 -170 -159.5 -279.5t-315.5 -109.5h-635zM377 74h260q104 0 196.5 85t116.5 228q5 31 6 60 q0 81 -43 144q-57 85 -172 85h-258zM496 758h231q96 0 171 69.5t95 184.5q6 33 6 62q0 78 -40 130q-54 72 -142 72h-231z" />
<glyph unicode="C" horiz-adv-x="1148" d="M156 614q25 139 79 268.5t137 241t209 178t273 66.5q260 0 383 -164l-37 -219h-123q2 24 2 46q0 127 -60 194q-71 78 -177 78q-205 0 -322 -146.5t-158 -384.5q-20 -143 -19 -273q0 -33 1 -65q6 -160 79 -271.5t202 -111.5q209 0 360 150l47 -51q-176 -172 -418 -173 q-123 0 -216 37t-144 99.5t-82 144.5q-30 79 -30 166q1 88 14 190z" />
<glyph unicode="D" horiz-adv-x="1363" d="M23 0l12 74h176l209 1202h-176l14 74h631q152 0 256 -54.5t150 -145.5t61 -210q5 -40 5 -81q0 -82 -20 -169q-18 -102 -54 -197.5t-95 -186.5t-134 -157.5t-179.5 -107.5t-223.5 -41h-632zM383 74h283q106 0 193 53t145.5 144t97.5 195.5t59 225.5q18 106 18 195 q0 133 -40 229q-68 160 -265 160h-282z" />
<glyph unicode="E" horiz-adv-x="1153" d="M20 0l13 74h176l209 1202h-176l14 74h989l-63 -361h-74l-57 287h-465l-90 -518h323l27 147h92l-64 -377h-92l25 148h-324l-104 -602h481l156 286h71l-61 -360h-1006z" />
<glyph unicode="F" horiz-adv-x="1136" d="M20 0l13 74h176l209 1202h-176l14 74h989l-63 -361h-74l-57 287h-465l-90 -518h323l27 147h92l-64 -377h-92l25 148h-324l-104 -602h176l-12 -74h-523z" />
<glyph unicode="G" horiz-adv-x="1325" d="M156 614q25 143 78 271.5t137 240t209 177t274 65.5q139 0 242.5 -47t154.5 -117l-37 -219h-122q2 23 1 44q0 129 -65 196q-76 78 -184 78q-205 0 -324 -146.5t-160 -384.5q-23 -110 -23 -222q0 -17 1 -35q4 -130 29.5 -234.5t93 -171t166.5 -66.5q125 0 222 88t118 215 l28 150h-227l14 73h514l-14 -73h-115l-86 -496h-172l21 119q-41 -53 -125 -97.5t-191 -44.5q-125 0 -217 37t-143 99.5t-82 144.5q-30 79 -30 166q1 88 14 190z" />
<glyph unicode="H" horiz-adv-x="1378" d="M23 0l12 74h145l209 1202h-145l14 74h451l-15 -74h-137l-90 -522h614l90 522h-135l15 74h450l-14 -74h-146l-208 -1202h145l-12 -74h-451l12 74h136l104 600h-614l-105 -600h137l-12 -74h-450z" />
<glyph unicode="I" horiz-adv-x="696" d="M16 0l13 74h198l209 1202h-198l14 74h573l-14 -74h-207l-209 -1202h207l-12 -74h-574z" />
<glyph unicode="J" horiz-adv-x="690" d="M-225 -383l61 53q68 -68 170 -67q129 0 170 219l254 1454h-201l13 74h573l-12 -74h-209h4l-246 -1399q-29 -170 -132 -256t-228 -86q-135 0 -217 82z" />
<glyph unicode="K" d="M14 0l15 74h147l211 1202h-149l14 74h485l-14 -74h-162l-92 -528h31l622 528h-151l14 74h440l-14 -74h-172l-586 -506l480 -696h151l-14 -74h-525l15 74h153l-397 590h-61l-105 -590h162l-14 -74h-484z" />
<glyph unicode="L" horiz-adv-x="1132" d="M14 0l13 74h178l207 1202h-176l14 74h532l-14 -74h-186l-209 -1202h495l156 286h74l-64 -360h-1020z" />
<glyph unicode="M" horiz-adv-x="1667" d="M27 0l12 74h160l209 1200h-160l12 76h340l238 -1117l612 1117h336l-14 -76h-156l-209 -1200h156l-11 -74h-485l12 74h158l184 1056l-618 -1128h-90l-2 -2l-240 1139l-186 -1065h155l-12 -74h-401z" />
<glyph unicode="N" horiz-adv-x="1320" d="M23 0l12 74h160l208 1200h-159l14 76h326l426 -1006l164 930h-164l14 76h420l-14 -76h-168l-222 -1274h-92l-481 1137l-186 -1063h172l-13 -74h-417z" />
<glyph unicode="O" d="M156 614q23 139 77 268.5t138 241t210 178t273 66.5q121 0 212 -36t143.5 -98.5t83 -143t30.5 -171t-12 -184.5q-18 -111 -55 -215t-97.5 -203.5t-137.5 -174t-182.5 -120t-226.5 -45.5q-123 0 -216 37t-144 99.5t-81 144.5q-29 79 -29 166q1 88 14 190zM340 515 q4 -130 28.5 -234.5t91 -171t165.5 -66.5q207 0 324.5 146.5t158.5 392.5q20 138 20 264q0 39 -2 77q-8 161 -82.5 270.5t-203.5 109.5q-205 0 -322 -146.5t-156 -384.5q-23 -110 -23 -222q0 -18 1 -35z" />
<glyph unicode="P" horiz-adv-x="1153" d="M20 0l13 74h160l208 1202h-159l14 74h584q195 0 275 -101q61 -76 61 -181q0 -35 -7 -73q-25 -158 -150.5 -262t-305.5 -104h-254l-99 -555h162l-12 -74h-490zM471 707h231q98 0 178.5 80.5t100.5 203.5q7 41 7 76q0 77 -34 131q-49 78 -153 78h-232z" />
<glyph unicode="Q" d="M143 389q-5 39 -5 79q0 73 18 146q23 139 77 268.5t138 240t210 178t273 67.5q121 0 213 -36t144.5 -98.5t82.5 -142.5q30 -78 30 -166t-13 -190q-41 -252 -177.5 -459.5t-355.5 -277.5l60 -133l35 -70.5t32.5 -50.5t46 -37t58.5 -10q106 0 204 82l35 -53 q-119 -98 -252 -99q-150 0 -230.5 55.5t-111.5 129.5l-71 163q-143 6 -243.5 64.5t-142 147.5t-55.5 202zM340 513q4 -130 28.5 -234.5t91 -170t165.5 -65.5q389 0 485 537q22 108 22 216v42q-5 129 -32 232.5t-93.5 166.5t-164.5 63q-205 0 -322 -145t-158 -383 q-23 -112 -23 -224q0 -18 1 -35z" />
<glyph unicode="R" horiz-adv-x="1253" d="M20 0l15 74h155l207 1202h-157l14 74h582q197 0 276 -101q60 -75 60 -180q0 -35 -7 -74q-23 -135 -119 -233t-239 -125l254 -563h158l-13 -74h-309l-281 629h-157l-99 -555h160l-14 -74h-486zM469 707h231q98 0 178 80.5t101 203.5q7 39 7 74q0 77 -35 132 q-50 79 -152 79h-232z" />
<glyph unicode="S" horiz-adv-x="1007" d="M72 119l41 246h118q-1 -22 -1 -43q0 -139 50 -203q56 -74 173 -74q119 0 199.5 67.5t101.5 180.5q4 23 3 44q0 86 -61 134l-186 137l-176 129q-110 85 -110 233q0 34 5 70q27 143 152 235.5t305 92.5q119 0 213 -36t141 -97l-43 -248h-123q4 43 4 80q0 115 -38 167 q-51 69 -170 69q-121 0 -192.5 -68t-86.5 -166q-3 -18 -3 -35q0 -83 67 -131l350 -254q125 -93 124 -246q0 -33 -5 -69q-27 -154 -159 -255.5t-325 -101.5q-137 0 -232 40.5t-136 101.5z" />
<glyph unicode="T" horiz-adv-x="1165" d="M199 989l65 361h1022l-65 -361h-72l-57 287h-246l-209 -1202h174l-12 -74h-520l12 74h176l209 1202h-248l-156 -287h-73z" />
<glyph unicode="U" horiz-adv-x="1302" d="M231 1276l15 74h495l-14 -74h-162l-159 -907q-5 -33 -6 -63q0 -92 47 -159q62 -88 180 -88q135 0 247.5 81t137.5 227l159 909h-170l15 74h426l-15 -74h-163l-160 -907q-29 -176 -163 -284t-328.5 -108t-299.5 109q-82 85 -82 211q0 34 7 72l157 907h-164z" />
<glyph unicode="V" horiz-adv-x="1361" d="M205 1276l12 74h514l-10 -74h-170l178 -1020l535 1020h-217l12 74h481l-12 -74h-180l-662 -1274h-92l-223 1274h-166z" />
<glyph unicode="W" horiz-adv-x="2009" d="M209 1276l14 74h516l-14 -74h-170l141 -995l480 1060h84l153 -1060l471 995h-198l14 74h481l-14 -74h-197l-606 -1276h-92l-146 1047l-477 -1047h-92l-182 1276h-166z" />
<glyph unicode="X" horiz-adv-x="1392" d="M-31 0l11 74h206l488 588l-277 614h-178l14 74h545l-14 -74h-152l201 -455l371 455h-185l15 74h481l-12 -74h-203l-430 -528l305 -674h150l-13 -74h-565l12 74h201l-231 514l-424 -514h211l-13 -74h-514z" />
<glyph unicode="Y" horiz-adv-x="1226" d="M211 1276l14 74h510l-14 -74h-168l178 -580l393 580h-200l14 74h448l-14 -74h-164l-446 -655l-94 -547h200l-12 -74h-565l12 74h197l86 493l-221 709h-154z" />
<glyph unicode="Z" horiz-adv-x="1126" d="M20 0l15 76l993 1200h-559l-160 -287h-71l63 361h932l-14 -74l-996 -1202h625l158 286h71l-61 -360h-996z" />
<glyph unicode="[" horiz-adv-x="489" d="M47 -375l311 1817h340l-12 -74h-207l-289 -1669h207l-12 -74h-338z" />
<glyph unicode="\" horiz-adv-x="710" d="M256 1405h88l258 -1458h-88z" />
<glyph unicode="]" horiz-adv-x="487" d="M-104 -375l12 74h203l288 1669h-206l12 74h340l-316 -1817h-333z" />
<glyph unicode="^" horiz-adv-x="839" d="M0 586l483 837h86l162 -837h-84l-135 731l-422 -731h-90z" />
<glyph unicode="_" horiz-adv-x="946" d="M-41 -254l14 80h822l-15 -80h-821z" />
<glyph unicode="`" horiz-adv-x="477" d="M184 1249l125 111l226 -301h-89z" />
<glyph unicode="a" horiz-adv-x="1081" d="M116 262q-4 30 -5 61q0 50 12 99q16 96 53 185t95.5 167t145.5 124t189 46q160 0 223 -104l19 84h151l-141 -828q-4 -25 7.5 -38t41.5 -5l70 31l16 -49q-80 -59 -172 -60h-14q-49 0 -75.5 28t-29.5 54l-2 29q-98 -109 -260 -109q-106 0 -180 39t-103.5 102.5t-40.5 143.5 zM288 306q1 -108 45 -183.5t128 -75.5q100 0 176 60.5t98 185.5l58 338q7 36 7 67q0 77 -44 119q-61 59 -160 60q-123 0 -194.5 -96.5t-98.5 -250.5q-15 -110 -15 -211v-13z" />
<glyph unicode="b" horiz-adv-x="1062" d="M115 0l231 1354h-143l10 59l299 21l-104 -594q104 104 264 104q207 0 285 -125q57 -90 57 -212q0 -48 -8 -101q-37 -211 -166 -370t-328 -159q-164 0 -233 113l-15 -90h-149zM311 279q-5 -26 -5 -51q0 -73 48 -119q63 -61 170 -62q233 0 297 354q17 98 17 180 q0 89 -20 159q-38 134 -161 134q-100 0 -181 -58t-105 -185z" />
<glyph unicode="c" horiz-adv-x="937" d="M108 208q-9 46 -10 98q0 54 11 114q16 94 55 183t98.5 168t148.5 126t193 47q156 0 233.5 -69.5t84.5 -188.5h-185q0 8 1 17q0 75 -35 124q-38 55 -109 56q-236 0 -301 -355q-10 -76 -11 -146q0 -40 4 -78q9 -105 63 -177t143 -72q98 0 166.5 60.5t99.5 130.5l63 -17 q-16 -37 -43.5 -73.5t-74 -79.5t-116 -71t-151.5 -28q-143 0 -226 68t-102 163z" />
<glyph unicode="d" horiz-adv-x="1067" d="M127 422q33 209 159 365.5t324 156.5q160 0 224 -104l90 514h-146l10 59l302 21l-248 -1434h-152l15 86q-102 -109 -263 -109q-205 0 -276 131q-49 89 -49 204q0 52 10 110zM291 306.5q0 -107.5 44 -183.5t128 -76q100 0 178 60.5t98 185.5l58 338q7 36 7 67 q0 77 -44 119q-61 59 -160 60q-123 0 -195.5 -96.5t-97.5 -250.5q-16 -116 -16 -223.5z" />
<glyph unicode="e" horiz-adv-x="972" d="M111 422q37 207 167 364.5t328 157.5q197 0 272 -119q50 -80 50 -200q0 -60 -13 -129h-624q-7 -57 -7 -112q0 -46 5 -91q10 -98 65.5 -170t139.5 -72q104 0 179 62.5t105 132.5l64 -17q-41 -88 -142.5 -168.5t-255.5 -83.5q-143 0 -227 68t-105 164q-11 49 -11 104 q0 52 10 109zM301 563h432q18 82 18 143q0 177 -155 177q-225 -1 -295 -320z" />
<glyph unicode="f" horiz-adv-x="665" d="M-252 -377l57 53q66 -74 160 -73q152 0 191 223l176 1036h-146l11 62h147l33 184q29 166 133 248t225 82q131 0 209 -82l-59 -53q-61 74 -160 73q-152 0 -193 -231l-36 -221h276l-12 -62h-277l-172 -991q-29 -166 -133 -248t-225 -82q-131 0 -205 82z" />
<glyph unicode="g" horiz-adv-x="1062" d="M14 -156q10 66 48 116t90 71q-48 38 -48 108q0 17 2 35q18 100 144 174q-63 54 -64 167q0 40 9 87q25 154 138 248t275 94q172 0 250 -96h217l-12 -70h-170q19 -52 19 -108q0 -33 -7 -68q-27 -154 -140.5 -247t-275.5 -93q-125 0 -194 47q-74 -47 -88 -129q-2 -11 -2 -21 q0 -36 22 -63q29 -35 88 -35h68l-6 -61h-86q-106 -35 -125 -164q-5 -26 -5 -50q0 -72 43 -120q56 -63 179 -63q125 0 205 63.5t96 169.5q5 28 5 51q0 90 -71 113h-102l8 61h428l-8 -61h-143q42 -50 42 -118q0 -18 -3 -38q-27 -141 -149 -223t-318 -82q-199 0 -292 82 q-72 64 -73 163q0 29 6 60zM356 635q-10 -53 -10 -101q0 -67 21 -120q35 -92 137 -92q3 0 5 -1q102 0 161 73q59 75 80 194q7 42 6 79q0 75 -27 132q-41 86 -143 86q-98 0 -156 -70.5t-74 -179.5z" />
<glyph unicode="h" horiz-adv-x="1073" d="M12 0l8 61h127l226 1295h-144l13 57l297 21l-105 -592q100 104 273 104q259 0 259 -223q0 -43 -10 -94l-98 -568h127l-8 -61h-410l8 61h132l98 568q10 50 9 90q0 156 -146 155q-86 0 -166 -53t-103 -180l-100 -580h129l-8 -61h-408z" />
<glyph unicode="i" horiz-adv-x="575" d="M12 0l11 61h161l140 801h-148l12 60l299 20l-151 -881h162l-11 -61h-475zM340 1229q8 51 50 87t95 36q49 0 77 -36q21 -28 22 -65q0 -11 -2 -22q-10 -53 -51.5 -88t-92.5 -35q-49 0 -78 36q-22 28 -22 65q0 11 2 22z" />
<glyph unicode="j" horiz-adv-x="587" d="M-270 -377l59 53q57 -74 158 -73q150 0 190 223l178 1036h-147l12 60l299 20l-184 -1071q-29 -166 -134.5 -248t-226.5 -82q-130 0 -204 82zM322 1229q8 51 50 87t95 36q49 0 77 -36q21 -28 21 -65q0 -11 -2 -22q-10 -53 -51 -88t-92 -35q-49 0 -78 36q-22 28 -22 65 q0 11 2 22z" />
<glyph unicode="k" horiz-adv-x="1071" d="M12 0l11 61h145l229 1295h-147l8 57l305 21l-157 -902h28l402 330h-140l11 64h395l-10 -64h-154l-360 -301l340 -500h129l-11 -61h-444l10 61h121l-274 402h-56l-71 -402h127l-11 -61h-426z" />
<glyph unicode="l" horiz-adv-x="540" d="M12 0l8 61h130l225 1295h-146l13 57l299 21l-238 -1373h127l-6 -61h-412z" />
<glyph unicode="m" horiz-adv-x="1533" d="M12 0l8 61h134l137 801h-146l13 60l299 20l-19 -100q92 102 246 102q182 0 221 -133q100 133 283 133q234 0 233 -215q0 -45 -10 -100l-98 -568h131l-8 -61h-385l8 61h102l99 568q11 59 10 104q0 51 -14 82q-26 59 -101.5 59t-148 -51t-95.5 -170l-104 -592h115l-9 -61 h-378l8 61h114l99 568q11 59 10 104q0 51 -13 82q-26 59 -102 59q-78 0 -151.5 -54t-96.5 -179l-100 -580h107l-9 -61h-389z" />
<glyph unicode="n" horiz-adv-x="1075" d="M12 0l8 61h127l140 801h-129l12 60l281 20l-17 -100q98 102 271 102q261 0 261 -222q0 -42 -10 -93l-98 -568h127l-8 -61h-410l8 61h132l98 568q10 50 9 89q0 157 -148 156q-84 0 -164 -54t-103 -179l-100 -580h129l-8 -61h-408z" />
<glyph unicode="o" horiz-adv-x="991" d="M127 422q35 211 161 367.5t322 156.5q104 0 178 -39t107 -101.5t45 -140.5q5 -32 5 -64q0 -48 -11 -95q-23 -131 -81 -246t-166.5 -199t-242.5 -84q-205 0 -277 131q-50 90 -50 205q0 52 10 109zM291 302.5q0 -109.5 43 -186.5t121 -77q238 0 297 360q17 111 16 209v22 q-2 108 -45 181.5t-123 73.5q-123 0 -194.5 -98.5t-98.5 -256.5q-16 -118 -16 -227.5z" />
<glyph unicode="p" horiz-adv-x="1050" d="M-102 -438l12 61h141l230 1321h149l-18 -104q104 104 262 104q104 0 179 -37t108.5 -97t47.5 -139q6 -33 5 -68q0 -48 -10 -97q-23 -133 -80.5 -248t-165 -198t-242.5 -83q-170 0 -233 111l-80 -465h143l-12 -61h-436zM315 276q-4 -25 -4 -46q0 -75 48 -122 q62 -60 167 -61q238 0 297 354q17 98 17 180q0 89 -20 158q-38 133 -161 133q-100 0 -180 -57t-104 -184z" />
<glyph unicode="q" horiz-adv-x="1054" d="M118 262q-4 30 -5 61q0 50 12 99q35 211 161 366.5t324 155.5q158 0 221 -104l15 71l158 33l-228 -1321h144l-13 -61h-440l12 61h144l79 463q-102 -109 -260 -109q-106 0 -180 39t-103.5 102.5t-40.5 143.5zM289 304.5q0 -107.5 45 -182.5t129 -75q100 0 177 60.5 t97 185.5l60 338q6 34 6 63q0 79 -45 122q-61 58 -160 58q-123 0 -195.5 -96t-97.5 -250q-16 -116 -16 -223.5z" />
<glyph unicode="r" horiz-adv-x="739" d="M12 0l11 61h127l137 801h-129l10 60l283 20l-29 -164q51 74 125 120t147 46q94 0 146 -43l-9 -47l-116 -100q-37 66 -111 67q-76 0 -135 -56t-76 -142l-96 -562h176l-10 -61h-451z" />
<glyph unicode="s" horiz-adv-x="864" d="M72 78l39 237h86q-7 -44 -8 -80q0 -83 39 -129q56 -66 161 -65q86 0 146.5 45t70.5 115q2 13 2 24q0 63 -47 90l-276 183q-90 60 -91 164q0 23 5 49q16 100 112.5 166.5t235.5 66.5q92 0 170 -27.5t110 -70.5l-41 -240h-86q8 49 8 89q0 188 -173 188q-86 0 -136.5 -44 t-62.5 -108q-2 -12 -2 -22q0 -52 49 -84l270 -172q103 -66 103 -175q0 -23 -4 -49q-18 -109 -121 -180.5t-252 -71.5q-113 0 -195.5 29t-111.5 72z" />
<glyph unicode="t" horiz-adv-x="673" d="M162 862l6 39l260 211h39l-31 -188h303l-10 -62h-303l-109 -626q-6 -37 -6 -67q0 -122 109 -122q72 0 166 66l35 -54q-109 -82 -234 -82q-227 0 -227 190q0 36 8 79l106 616h-112z" />
<glyph unicode="u" horiz-adv-x="1101" d="M160 862l12 62h279l-111 -629q-8 -46 -8 -83q0 -163 147 -163q86 0 166 53.5t100 180.5l101 579h-127l12 62h279l-152 -863h129l-10 -59l-281 -20l17 100q-98 -102 -273 -102q-260 0 -260 226q0 41 8 89l99 567h-127z" />
<glyph unicode="v" horiz-adv-x="950" d="M82 862l12 62h432l-12 -62h-147l145 -649l346 649h-190l12 62h397l-12 -62h-129l-461 -862h-72l-208 862h-113z" />
<glyph unicode="w" horiz-adv-x="1437" d="M82 862l12 62h436l-12 -62h-147l131 -637l342 699h45l131 -699l323 637h-190l12 62h400l-13 -62h-129l-448 -862h-70l-129 645l-313 -645h-74l-192 862h-115z" />
<glyph unicode="x" horiz-adv-x="1054" d="M-8 0l12 63h143l326 396l-190 403h-105l12 62h385l-10 -62h-98l123 -274l229 274h-125l13 62h337l-12 -62h-129l-282 -340l221 -459h135l-10 -63h-453l12 63h133l-155 328l-264 -328h149l-12 -63h-385z" />
<glyph unicode="y" horiz-adv-x="958" d="M-100 -377l51 58q25 -27 37 -37.5t41.5 -24.5t64.5 -14q55 0 95 40t83 117l131 242l-198 858h-113l12 62h433l-13 -62h-147l145 -641l344 641h-174l13 62h380l-12 -62h-129l-600 -1112q-61 -113 -118.5 -161t-143.5 -48q-108 0 -182 82z" />
<glyph unicode="z" horiz-adv-x="907" d="M31 0l12 66l692 796h-364l-127 -231h-56l52 293h669l-10 -60l-680 -801h430l127 234h55l-51 -297h-749z" />
<glyph unicode="{" horiz-adv-x="567" d="M201 670l4 32q80 23 111.5 59t45.5 116l48 292q23 121 109.5 189.5t191.5 75.5l4 -33q-78 -20 -116 -68.5t-54 -138.5l-49 -293q-16 -96 -52 -144t-120 -71q76 -23 95 -75t-1 -140l-49 -293q-14 -90 6 -138t96 -69l-18 -32q-104 6 -167 73.5t-40 190.5l51 293 q12 82 -6 116.5t-90 57.5z" />
<glyph unicode="|" horiz-adv-x="329" d="M63 -86l265 1524h82l-265 -1524h-82z" />
<glyph unicode="}" horiz-adv-x="567" d="M57 -29q80 20 118 68.5t52 138.5l49 293q16 96 53.5 144.5t123.5 70.5q-78 23 -96.5 71t-2.5 144l49 293q16 90 -5 138t-97 69l21 33q102 -6 164.5 -75t39.5 -190l-49 -292q-12 -82 5.5 -117t88.5 -58l-4 -32q-80 -23 -110.5 -59t-44.5 -115l-50 -293 q-23 -121 -109.5 -189.5t-189.5 -74.5z" />
<glyph unicode="~" horiz-adv-x="935" d="M137 483q31 80 86.5 132.5t126.5 52.5q39 0 195.5 -41t199.5 -41q31 0 64 22.5t43 50.5h47q-74 -184 -207 -184q-41 0 -200.5 41t-200.5 41q-33 0 -63.5 -22.5t-41.5 -51.5h-49z" />
<glyph unicode="&#xa1;" horiz-adv-x="491" d="M33 -420l194 920h105l-123 -920h-176zM217 827.5q8 51.5 51 87t94 35.5q49 0 77 -35.5t20 -87.5q-10 -53 -51 -87.5t-93 -34.5q-49 0 -77.5 35.5t-20.5 87z" />
<glyph unicode="&#xa2;" horiz-adv-x="980" d="M168 438q-12 94 2 203q20 123 72.5 232.5t152 193.5t223.5 96l33 187h82l-33 -187q238 -23 265 -266h-181q-2 90 -37.5 148.5t-103.5 58.5q-123 0 -194.5 -98.5t-98.5 -255.5q-33 -186 15.5 -332t175.5 -146q123 0 229 121l51 -41q-121 -137 -286 -151l-37 -201h-82 l37 201q-125 8 -199 75.5t-86 161.5z" />
<glyph unicode="&#xa3;" horiz-adv-x="1093" d="M6 0l14 76h175l118 692h-161l14 82h160l24 135q35 197 164 292t299 95q236 0 336 -135l-43 -248h-123q16 180 -28 248t-156 68q-109 0 -179.5 -79t-95.5 -231l-26 -145h319l-14 -82h-320l-118 -692h438l153 284h72l-61 -360h-961z" />
<glyph unicode="&#xa5;" horiz-adv-x="1267" d="M231 1276l15 74h510l-15 -74h-168l179 -580l393 580h-201l14 74h449l-14 -74h-164l-291 -426h229l-14 -82h-270l-101 -147l-6 -35h342l-14 -82h-340l-76 -430h201l-12 -74h-566l13 74h196l74 430h-342l14 82h332l-55 182h-246l14 82h207l-133 426h-154z" />
<glyph unicode="&#xa6;" horiz-adv-x="839" d="M188 0l99 567h82l-99 -567h-82zM324 782l98 568h82l-98 -568h-82z" />
<glyph unicode="&#xa7;" horiz-adv-x="847" d="M66 80l43 237h84q-51 -268 176 -268q86 0 145 41t72 111q8 76 -47 110l-281 189q-115 76 -86 229q27 154 199 217l-9 6q-111 76 -83 219q18 100 113 167t237 67q188 0 264 -100l-41 -238h-88q27 152 -13 209t-137 57q-88 0 -138 -41t-60 -102q-8 -63 47 -103l270 -172 q123 -76 98 -227q-14 -74 -70 -134t-140 -91l12 -6q123 -76 96 -228q-16 -109 -119.5 -180.5t-253.5 -71.5q-218 1 -290 103zM311 748q-8 -72 51 -113l179 -119q125 29 147 143q12 72 -45 111l-197 125q-108 -30 -135 -147z" />
<glyph unicode="&#xa8;" horiz-adv-x="774" d="M264 1231q10 47 47 77.5t82 30.5q43 0 68.5 -31.5t17.5 -76.5t-45 -77t-80 -32q-45 0 -71.5 32t-18.5 77zM643 1231q8 45 46 76.5t81 31.5q45 0 70.5 -31.5t17.5 -76.5t-44 -77t-83 -32q-43 0 -69.5 32t-18.5 77z" />
<glyph unicode="&#xa9;" horiz-adv-x="1490" d="M139 676q47 289 282.5 491.5t518.5 202.5t445.5 -202.5t113.5 -491.5q-51 -287 -284.5 -490.5t-516 -203.5t-446.5 203.5t-113 490.5zM217 676q-45 -256 100.5 -438.5t393.5 -182.5q250 0 458.5 182.5t253.5 438.5q43 256 -103 439t-394 183q-250 0 -458 -183t-251 -439z M455.5 501.5q-9.5 71.5 7.5 143.5q18 119 69.5 222.5t147.5 177t219 73.5q264 0 277 -254h-156q2 88 -33 143.5t-100 55.5q-207 0 -264 -318q-14 -109 -7 -205t54 -162.5t125 -66.5q61 0 124.5 40t104.5 100l49 -33q-133 -172 -323 -172q-96 0 -163 34.5t-94.5 92t-37 129z " />
<glyph unicode="&#xaa;" horiz-adv-x="696" d="M147 823q23 117 177 170l258 82l4 39q18 88 0.5 133t-82.5 45q-129 0 -133 -116l-4 -66h-138q0 63 50 127q92 109 233 109q240 0 197 -230l-68 -387q-2 -16 7 -22.5t24 -4.5l49 21l14 -43q-74 -43 -137 -43q-61 4 -76 68q-78 -68 -186 -68q-100 0 -152.5 47t-36.5 139z M276 823q-6 -47 16.5 -86t76.5 -39q78 0 163 80l-4 -2l43 240l-180 -58q-103 -39 -115 -135z" />
<glyph unicode="&#xab;" horiz-adv-x="935" d="M152 477l481 395l31 -36l-332 -359l209 -358l-43 -37zM459 477l481 395l31 -36l-334 -359l211 -358l-43 -37z" />
<glyph unicode="&#xac;" horiz-adv-x="940" d="M33 657l14 80h821l-80 -458h-79l65 378h-741z" />
<glyph unicode="&#xad;" horiz-adv-x="616" d="M129 498l12 80h441l-13 -80h-440z" />
<glyph unicode="&#xae;" horiz-adv-x="1490" d="M139 676q47 289 282.5 491.5t518.5 202.5t445.5 -202.5t113.5 -491.5q-51 -287 -284.5 -490.5t-516 -203.5t-446.5 203.5t-113 490.5zM217 676q-45 -256 100.5 -438.5t393.5 -182.5q250 0 458.5 182.5t253.5 438.5q43 256 -103 439t-394 183q-250 0 -458 -183t-251 -439z M432 272l12 64h101l121 711h-101l13 61h385q90 0 139 -65.5t33 -153.5q-14 -82 -83 -150.5t-151 -74.5l139 -328h103l-13 -64h-206l-158 392h-49l-55 -328h106l-10 -64h-326zM729 729h133q49 0 96.5 47t57.5 113q12 72 -18.5 115t-82.5 43h-133z" />
<glyph unicode="&#xaf;" horiz-adv-x="548" d="M205 1087l12 80h440l-12 -80h-440z" />
<glyph unicode="&#xb0;" horiz-adv-x="593" d="M201 1155q-2 84 61.5 146.5t145.5 62.5q86 0 146 -61.5t62 -147.5q2 -88 -59 -150.5t-149 -62.5q-86 0 -145.5 60.5t-61.5 152.5zM287 1155q0 -55 32.5 -95t88.5 -40q51 0 87.5 40t36.5 95q-2 49 -37.5 90t-86.5 41q-55 0 -89 -40t-32 -91z" />
<glyph unicode="&#xb1;" horiz-adv-x="1026" d="M47 0l12 80h820l-13 -80h-819zM152 498l12 80h373l63 380h78l-64 -380h371l-14 -80h-371l-63 -377h-78l63 377h-370z" />
<glyph unicode="&#xb2;" horiz-adv-x="677" d="M39 664l8 49l229 217q137 133 156 231q10 57 -14.5 94t-75.5 37q-92 0 -172 -96l-51 33q102 127 233 127q90 0 148.5 -51.5t42.5 -145.5q-2 -16 -9.5 -33.5t-13.5 -30t-19 -29.5l-21 -27q-7 -9 -26 -27l-27 -26q-7 -7 -31.5 -28.5t-30.5 -27.5l-181 -164h299l-20 -102 h-424z" />
<glyph unicode="&#xb3;" horiz-adv-x="645" d="M176 737l51 39q47 -70 146 -69q59 0 113.5 47t54.5 129q0 47 -30 72.5t-79 25.5h-43l10 51q66 0 122.5 43t56.5 121q0 82 -91 82q-92 0 -163 -86l-50 31q98 121 222 120q76 0 129 -39.5t53 -113.5q0 -51 -31 -99.5t-80 -76.5q82 -37 82 -123q0 -115 -92 -182.5 t-192 -67.5q-128 0 -189 96z" />
<glyph unicode="&#xb4;" horiz-adv-x="559" d="M233 1059l332 301l84 -111l-330 -190h-86z" />
<glyph unicode="&#xb5;" horiz-adv-x="1097" d="M14 -406l228 1330h153l-108 -629q-8 -43 -8 -88q0 -158 147 -158q86 0 165 53.5t101 180.5l111 641h149l-143 -838v-6q0 -27 27 -27q10 0 47 11.5t39 15.5l14 -49q-96 -55 -176 -56q-55 0 -80 31t-25 66v8l2 2q-96 -102 -272 -102q-94 0 -143 63l-82 -481z" />
<glyph unicode="&#xb6;" horiz-adv-x="1153" d="M250 995q25 154 142.5 254.5t312.5 100.5h514l-15 -74h-157l-222 -1276h-86l222 1276h-175l-221 -1276h-86l111 629h-10q-180 0 -268.5 104t-61.5 262z" />
<glyph unicode="&#xb7;" horiz-adv-x="401" d="M117 485q10 53 51 88t92 35q49 0 78 -35.5t20.5 -87t-50.5 -87.5t-95 -36q-49 0 -76.5 36t-19.5 87z" />
<glyph unicode="&#xb8;" horiz-adv-x="473" d="M-6 -229l254 198h78l-242 -305z" />
<glyph unicode="&#xb9;" horiz-adv-x="624" d="M143 649l11 58h96l90 503l-100 -57l-27 47l217 129h33l-111 -622h99l-13 -58h-295z" />
<glyph unicode="&#xba;" horiz-adv-x="628" d="M180 995q29 168 120 261.5t198 93.5q113 0 171 -89.5t25 -265.5q-29 -170 -119 -263t-198 -93q-111 0 -169.5 90t-27.5 266zM301 995q-49 -295 86 -295q137 0 186 295q51 293 -86 293q-133 0 -186 -293z" />
<glyph unicode="&#xbb;" horiz-adv-x="935" d="M63 119l332 358l-209 359l41 36l346 -395l-481 -395zM371 119l329 358l-206 359l41 36l346 -395l-482 -395z" />
<glyph unicode="&#xbc;" horiz-adv-x="1398" d="M219 649l10 58h97l90 503l-101 -57l-26 47l217 129h33l-111 -622h98l-12 -58h-295zM326 -53l780 1458h88l-778 -1458h-90zM737 166l8 57l420 471h68l-80 -438h117l-17 -90h-114l-29 -152h-96l22 152h-299zM848 256h205l53 289z" />
<glyph unicode="&#xbd;" horiz-adv-x="1398" d="M219 649l10 58h97l90 503l-101 -57l-26 47l217 129h33l-111 -622h98l-12 -58h-295zM315 -53l781 1458h88l-778 -1458h-91zM797 0l8 49l229 217q137 133 156 232q10 57 -14.5 94t-75.5 37q-92 0 -172 -97l-51 33q102 127 233 127q90 0 148.5 -51t41.5 -145q-2 -16 -9 -34 t-13 -30t-20 -30l-20 -26q-7 -9 -27 -28l-26 -25q-7 -7 -32 -29t-31 -28l-180 -164h299l-20 -102h-424z" />
<glyph unicode="&#xbe;" horiz-adv-x="1398" d="M176 737l51 39q47 -70 146 -69q59 0 113.5 47t54.5 129q0 47 -30 72.5t-79 25.5h-43l10 51q66 0 122.5 43t56.5 121q0 82 -91 82q-92 0 -163 -86l-50 31q98 121 222 120q76 0 129 -39.5t53 -113.5q0 -51 -31 -99.5t-80 -76.5q82 -37 82 -123q0 -115 -92 -182.5 t-192 -67.5q-128 0 -189 96zM326 -53l780 1458h88l-778 -1458h-90zM737 166l8 57l420 471h68l-80 -438h117l-17 -90h-114l-29 -152h-96l22 152h-299zM848 256h205l53 289z" />
<glyph unicode="&#xbf;" horiz-adv-x="946" d="M-10 -115q4 23 10 45l11 40q5 17 17.5 37t18.5 31t22.5 29.5t21.5 25.5t25.5 24.5t24.5 21.5t28 23.5t26 21.5l170 146q100 88 112 168h90q-16 -98 -42.5 -139.5t-116.5 -129.5l-168 -161q-84 -84 -103 -211q-16 -98 32 -165t169 -67t202 68.5t128 245.5h106l-45 -246 q-68 -61 -175.5 -99t-225.5 -38q-180 0 -271.5 93t-66.5 236zM457 827q10 53 51 88t92 35q49 0 78 -35.5t20.5 -87t-50.5 -87t-93 -35.5q-49 0 -77.5 35.5t-20.5 86.5z" />
<glyph unicode="&#xc0;" horiz-adv-x="1314" d="M-25 0l13 74h166l663 1276h90l223 -1276h117l-12 -74h-416l12 74h125l-75 422h-422l-221 -422h165l-12 -74h-416zM498 575h366l-92 529zM657 1634l125 111l226 -301h-88z" />
<glyph unicode="&#xc1;" horiz-adv-x="1314" d="M-25 0l13 74h166l663 1276h90l223 -1276h117l-12 -74h-416l12 74h125l-75 422h-422l-221 -422h165l-12 -74h-416zM498 575h366l-92 529zM698 1440l332 301l84 -111l-330 -190h-86z" />
<glyph unicode="&#xc2;" horiz-adv-x="1314" d="M-25 0l13 74h166l663 1276h90l223 -1276h117l-12 -74h-416l12 74h125l-75 422h-422l-221 -422h165l-12 -74h-416zM498 575h366l-92 529zM580 1444l344 311l241 -311h-78l-194 133l-236 -133h-77z" />
<glyph unicode="&#xc3;" horiz-adv-x="1314" d="M-25 0l13 74h166l663 1276h90l223 -1276h117l-12 -74h-416l12 74h125l-75 422h-422l-221 -422h165l-12 -74h-416zM498 575h366l-92 529zM580 1442q33 80 87 132t126 52q39 0 118.5 -41t122.5 -41q33 0 64.5 22.5t42.5 51.5h49q-78 -184 -207 -184q-41 0 -124 41t-126 41 q-33 0 -63.5 -23t-38.5 -51h-51z" />
<glyph unicode="&#xc4;" horiz-adv-x="1314" d="M-25 0l13 74h166l663 1276h90l223 -1276h117l-12 -74h-416l12 74h125l-75 422h-422l-221 -422h165l-12 -74h-416zM498 575h366l-92 529zM586 1552q10 47 47 78t82 31q43 0 68.5 -32t17.5 -77t-45 -76.5t-80 -31.5q-45 0 -71.5 31.5t-18.5 76.5zM964.5 1552 q8.5 45 46.5 77t81 32q45 0 70.5 -32t17 -77t-44 -76.5t-82.5 -31.5q-43 0 -70 31.5t-18.5 76.5z" />
<glyph unicode="&#xc5;" horiz-adv-x="1314" d="M-25 0l13 74h166l663 1276h90l223 -1276h117l-12 -74h-416l12 74h125l-75 422h-422l-221 -422h165l-12 -74h-416zM498 575h366l-92 529zM733 1618q12 74 70.5 124t132.5 50q70 0 114 -54.5t33 -119.5q-14 -80 -71.5 -132t-137.5 -52q-70 0 -112.5 56t-28.5 128zM805 1618 q-12 -45 10.5 -80t69.5 -35q45 0 83 34t46 81q10 45 -16.5 76.5t-73.5 31.5q-41 0 -75 -34.5t-44 -73.5z" />
<glyph unicode="&#xc6;" horiz-adv-x="1779" d="M-29 0l13 74h166l747 1202h-127l12 74h1094l-66 -361h-71l-58 287h-464l-91 -518h324l25 147h94l-66 -377h-92l27 148h-324l-106 -602h481l158 286h71l-61 -360h-1006l13 74h176l71 420h-409l-260 -420h159l-12 -74h-418zM553 575h373l123 699h-62z" />
<glyph unicode="&#xc7;" horiz-adv-x="1148" d="M142 430q1 90 14 184q25 139 79 268.5t137 241t209 178t273 66.5q260 0 383 -164l-37 -219h-123q12 162 -58.5 240t-176.5 78q-205 0 -322 -146.5t-158 -384.5q-25 -178 -18.5 -338t79.5 -271.5t202 -111.5q209 0 360 150l47 -51q-176 -172 -418 -173q-123 0 -216 37 t-144 99.5t-82 144.5t-30 172zM295 -272l254 198h78l-242 -305z" />
<glyph unicode="&#xc8;" horiz-adv-x="1138" d="M10 0l13 74h176l209 1202h-177l15 74h989l-64 -361h-73l-58 287h-465l-90 -518h324l27 147h92l-64 -377h-92l25 148h-324l-104 -602h481l156 286h71l-61 -360h-1006zM596 1634l125 111l225 -301h-88z" />
<glyph unicode="&#xc9;" horiz-adv-x="1138" d="M10 0l13 74h176l209 1202h-177l15 74h989l-64 -361h-73l-58 287h-465l-90 -518h324l27 147h92l-64 -377h-92l25 148h-324l-104 -602h481l156 286h71l-61 -360h-1006zM616 1444l332 301l84 -111l-330 -190h-86z" />
<glyph unicode="&#xca;" horiz-adv-x="1138" d="M10 0l13 74h176l209 1202h-177l15 74h989l-64 -361h-73l-58 287h-465l-90 -518h324l27 147h92l-64 -377h-92l25 148h-324l-104 -602h481l156 286h71l-61 -360h-1006zM492 1444l344 311l241 -311h-78l-194 133l-236 -133h-77z" />
<glyph unicode="&#xcb;" horiz-adv-x="1138" d="M10 0l13 74h176l209 1202h-177l15 74h989l-64 -361h-73l-58 287h-465l-90 -518h324l27 147h92l-64 -377h-92l25 148h-324l-104 -602h481l156 286h71l-61 -360h-1006zM524 1552q10 47 47 78t82 31q43 0 69 -32t17.5 -77t-45.5 -76.5t-80 -31.5q-45 0 -71.5 31.5 t-18.5 76.5zM903 1552q8 45 46 77t81 32q45 0 70.5 -32t17.5 -77t-44 -76.5t-83 -31.5q-43 0 -69.5 31.5t-18.5 76.5z" />
<glyph unicode="&#xcc;" horiz-adv-x="718" d="M27 0l12 74h199l208 1202h-198l14 74h574l-15 -74h-207l-208 -1202h206l-12 -74h-573zM387 1628l125 111l225 -301h-88z" />
<glyph unicode="&#xcd;" horiz-adv-x="688" d="M12 0l13 74h198l209 1202h-199l15 74h573l-14 -74h-207l-209 -1202h207l-12 -74h-574zM287 1438l331 301l84 -111l-329 -190h-86z" />
<glyph unicode="&#xce;" horiz-adv-x="700" d="M23 0l12 74h198l209 1202h-198l14 74h573l-14 -74h-207l-209 -1202h207l-12 -74h-573zM268 1442l344 311l242 -311h-78l-194 133l-236 -133h-78z" />
<glyph unicode="&#xcf;" horiz-adv-x="708" d="M29 0l12 74h199l209 1202h-199l14 74h574l-15 -74h-207l-208 -1202h206l-12 -74h-573zM293 1550q10 47 47 78t82 31q43 0 68.5 -32t17.5 -77t-45 -76.5t-80 -31.5q-45 0 -71.5 31.5t-18.5 76.5zM672 1550q8 45 46 77t81 32q45 0 70.5 -32t17.5 -77t-44 -76.5t-83 -31.5 q-43 0 -69.5 31.5t-18.5 76.5z" />
<glyph unicode="&#xd0;" horiz-adv-x="1363" d="M23 0l12 74h176l104 608h-168l13 80h170l90 514h-176l14 74h631q152 0 256 -54.5t150 -145.5t60.5 -210t-14.5 -250q-18 -102 -54 -197.5t-95 -186.5t-134 -157.5t-179.5 -107.5t-223.5 -41h-632zM383 74h283q106 0 193 53t145.5 144t97.5 195.5t59 225.5 q45 264 -22.5 424t-264.5 160h-282l-90 -514h272l-12 -80h-275z" />
<glyph unicode="&#xd1;" horiz-adv-x="1312" d="M23 0l12 74h160l208 1200h-159l14 76h326l426 -1006l164 930h-164l14 76h420l-14 -76h-168l-222 -1274h-92l-481 1137l-186 -1063h172l-13 -74h-417zM547 1442q33 80 87 132t126 52q39 0 118.5 -41t122.5 -41q33 0 65 22.5t42 51.5h49q-78 -184 -207 -184q-41 0 -124 41 t-126 41q-33 0 -63.5 -23t-38.5 -51h-51z" />
<glyph unicode="&#xd2;" d="M142 430q1 90 14 184q23 139 77 268.5t138 241t210 178t273 66.5q121 0 212 -36t143.5 -98.5t83 -143t30.5 -171t-12 -184.5q-18 -111 -55 -215t-97.5 -203.5t-137.5 -174t-182.5 -120t-226.5 -45.5q-123 0 -216 37t-144 99.5t-81 144.5t-29 172zM340 515 q4 -130 28.5 -234.5t91 -171t165.5 -66.5q207 0 324.5 146.5t158.5 392.5q27 180 18.5 340.5t-83 270.5t-203.5 110q-205 0 -322 -146.5t-156 -384.5q-26 -127 -22 -257zM680 1634l125 111l225 -301h-88z" />
<glyph unicode="&#xd3;" d="M142 430q1 90 14 184q23 139 77 268.5t138 241t210 178t273 66.5q121 0 212 -36t143.5 -98.5t83 -143t30.5 -171t-12 -184.5q-18 -111 -55 -215t-97.5 -203.5t-137.5 -174t-182.5 -120t-226.5 -45.5q-123 0 -216 37t-144 99.5t-81 144.5t-29 172zM340 515 q4 -130 28.5 -234.5t91 -171t165.5 -66.5q207 0 324.5 146.5t158.5 392.5q27 180 18.5 340.5t-83 270.5t-203.5 110q-205 0 -322 -146.5t-156 -384.5q-26 -127 -22 -257zM670 1444l331 301l84 -111l-329 -190h-86z" />
<glyph unicode="&#xd4;" d="M142 430q1 90 14 184q23 139 77 268.5t138 241t210 178t273 66.5q121 0 212 -36t143.5 -98.5t83 -143t30.5 -171t-12 -184.5q-18 -111 -55 -215t-97.5 -203.5t-137.5 -174t-182.5 -120t-226.5 -45.5q-123 0 -216 37t-144 99.5t-81 144.5t-29 172zM340 515 q4 -130 28.5 -234.5t91 -171t165.5 -66.5q207 0 324.5 146.5t158.5 392.5q27 180 18.5 340.5t-83 270.5t-203.5 110q-205 0 -322 -146.5t-156 -384.5q-26 -127 -22 -257zM584 1444l344 311l241 -311h-77l-195 133l-235 -133h-78z" />
<glyph unicode="&#xd5;" d="M142 430q1 90 14 184q23 139 77 268.5t138 241t210 178t273 66.5q121 0 212 -36t143.5 -98.5t83 -143t30.5 -171t-12 -184.5q-18 -111 -55 -215t-97.5 -203.5t-137.5 -174t-182.5 -120t-226.5 -45.5q-123 0 -216 37t-144 99.5t-81 144.5t-29 172zM340 515 q4 -130 28.5 -234.5t91 -171t165.5 -66.5q207 0 324.5 146.5t158.5 392.5q27 180 18.5 340.5t-83 270.5t-203.5 110q-205 0 -322 -146.5t-156 -384.5q-26 -127 -22 -257zM610 1440q33 80 87.5 132t125.5 52q39 0 119 -41t123 -41q33 0 64.5 22.5t41.5 51.5h50 q-78 -184 -207 -184q-41 0 -124 40.5t-126 40.5q-33 0 -63.5 -22.5t-38.5 -50.5h-52z" />
<glyph unicode="&#xd6;" d="M142 430q1 90 14 184q23 139 77 268.5t138 241t210 178t273 66.5q121 0 212 -36t143.5 -98.5t83 -143t30.5 -171t-12 -184.5q-18 -111 -55 -215t-97.5 -203.5t-137.5 -174t-182.5 -120t-226.5 -45.5q-123 0 -216 37t-144 99.5t-81 144.5t-29 172zM340 515 q4 -130 28.5 -234.5t91 -171t165.5 -66.5q207 0 324.5 146.5t158.5 392.5q27 180 18.5 340.5t-83 270.5t-203.5 110q-205 0 -322 -146.5t-156 -384.5q-26 -127 -22 -257zM600 1548q10 47 47 78t82 31q43 0 68.5 -32t17.5 -77t-45 -76.5t-80 -31.5q-45 0 -71.5 31.5 t-18.5 76.5zM979 1548q8 45 46 77t81 32q45 0 70.5 -32t17.5 -77t-44 -76.5t-83 -31.5q-43 0 -69.5 31.5t-18.5 76.5z" />
<glyph unicode="&#xd7;" horiz-adv-x="817" d="M78 193l307 266l-215 268l63 55l216 -266l311 268l43 -55l-309 -270l217 -269l-68 -55l-213 268l-309 -266z" />
<glyph unicode="&#xd8;" d="M59 -55l170 196q-123 170 -71 473q23 139 77 268.5t138 241t210 178t273 66.5q213 0 338 -115l129 150h100l-182 -207q123 -176 72 -461q-23 -139 -77 -268t-137 -241.5t-209 -180.5t-276 -68q-217 0 -331 109l-125 -141h-99zM362 295l721 829q-76 178 -241 179 q-205 0 -322 -146.5t-155 -384.5q-50 -262 -3 -477zM391 215q72 -172 236 -172q207 0 324.5 146.5t158.5 392.5q49 272 -4 460z" />
<glyph unicode="&#xd9;" horiz-adv-x="1302" d="M231 1276l15 74h495l-14 -74h-162l-159 -907q-20 -133 42 -221.5t179 -88.5q135 0 247.5 81t137.5 227l159 909h-170l15 74h426l-15 -74h-163l-160 -907q-29 -176 -163 -284t-328.5 -108t-299 109t-75.5 283l157 907h-164zM758 1632l125 111l225 -301h-88z" />
<glyph unicode="&#xda;" horiz-adv-x="1302" d="M231 1276l15 74h495l-14 -74h-162l-159 -907q-20 -133 42 -221.5t179 -88.5q135 0 247.5 81t137.5 227l159 909h-170l15 74h426l-15 -74h-163l-160 -907q-29 -176 -163 -284t-328.5 -108t-299 109t-75.5 283l157 907h-164zM668 1442l331 301l84 -111l-329 -190h-86z" />
<glyph unicode="&#xdb;" horiz-adv-x="1302" d="M231 1276l15 74h495l-14 -74h-162l-159 -907q-20 -133 42 -221.5t179 -88.5q135 0 247.5 81t137.5 227l159 909h-170l15 74h426l-15 -74h-163l-160 -907q-29 -176 -163 -284t-328.5 -108t-299 109t-75.5 283l157 907h-164zM565 1444l344 311l242 -311h-78l-194 133 l-236 -133h-78z" />
<glyph unicode="&#xdc;" horiz-adv-x="1302" d="M231 1276l15 74h495l-14 -74h-162l-159 -907q-20 -133 42 -221.5t179 -88.5q135 0 247.5 81t137.5 227l159 909h-170l15 74h426l-15 -74h-163l-160 -907q-29 -176 -163 -284t-328.5 -108t-299 109t-75.5 283l157 907h-164zM612 1552q10 47 47 78t82 31q43 0 69 -32 t17.5 -77t-45.5 -76.5t-80 -31.5q-45 0 -71.5 31.5t-18.5 76.5zM991 1552q8 45 46 77t81 32q45 0 70.5 -32t17.5 -77t-44 -76.5t-83 -31.5q-43 0 -69.5 31.5t-18.5 76.5z" />
<glyph unicode="&#xdd;" horiz-adv-x="1226" d="M211 1276l14 74h510l-14 -74h-168l178 -580l393 580h-200l14 74h448l-14 -74h-164l-446 -655l-94 -547h200l-12 -74h-565l12 74h197l86 493l-221 709h-154zM629 1458l332 301l83 -110l-329 -191h-86z" />
<glyph unicode="&#xde;" horiz-adv-x="1153" d="M23 0l12 74h160l211 1202h-166l14 74h487l-12 -74h-156l-36 -215h256q195 0 275.5 -100.5t55.5 -253.5q-27 -158 -152.5 -262.5t-305.5 -104.5h-254l-47 -266h159l-12 -74h-489zM426 418h229q98 0 178 80t103 204q20 129 -29 207t-153 78h-230z" />
<glyph unicode="&#xdf;" horiz-adv-x="1064" d="M-2 0l12 63h125l162 945q27 156 129 249t254 93q176 0 242.5 -85t46.5 -204q-8 -47 -40 -93t-58.5 -68.5t-76 -56.5t-53.5 -38q-63 -43 -73 -94q-6 -41 53 -90l172 -146q117 -100 92 -233q-18 -106 -124.5 -184t-242.5 -78q-123 0 -204 81l53 54q78 -72 162 -72 q76 0 131 49t67 121q12 80 -39 125l-145 131q-33 29 -50.5 50.5t-29.5 64.5t-4 98q16 84 84 141q8 8 51 42t57.5 50.5t37 55.5t30.5 86q18 100 -14.5 164.5t-134.5 64.5q-80 0 -134.5 -47t-70.5 -137l-191 -1102h-276z" />
<glyph unicode="&#xe0;" horiz-adv-x="1087" d="M115.5 262q-11.5 80 7.5 160q16 96 53 185t95.5 167t145.5 124t189 46q160 0 223 -104l19 84h151l-141 -828q-4 -25 7.5 -38t41.5 -5l70 31l16 -49q-80 -59 -172 -60h-14q-49 0 -75.5 28t-29.5 54l-2 29q-98 -109 -260 -109q-106 0 -180 39t-103.5 102.5t-41 143.5z M288 306.5q1 -107.5 45 -183.5t128 -76q100 0 176 60.5t98 185.5l58 338q25 127 -37 186.5t-160 59.5q-123 0 -194.5 -96.5t-98.5 -250.5q-16 -116 -15 -223.5zM459 1249l125 111l225 -301h-88z" />
<glyph unicode="&#xe1;" horiz-adv-x="1087" d="M115.5 262q-11.5 80 7.5 160q16 96 53 185t95.5 167t145.5 124t189 46q160 0 223 -104l19 84h151l-141 -828q-4 -25 7.5 -38t41.5 -5l70 31l16 -49q-80 -59 -172 -60h-14q-49 0 -75.5 28t-29.5 54l-2 29q-98 -109 -260 -109q-106 0 -180 39t-103.5 102.5t-41 143.5z M288 306.5q1 -107.5 45 -183.5t128 -76q100 0 176 60.5t98 185.5l58 338q25 127 -37 186.5t-160 59.5q-123 0 -194.5 -96.5t-98.5 -250.5q-16 -116 -15 -223.5zM502 1059l332 301l84 -111l-330 -190h-86z" />
<glyph unicode="&#xe2;" horiz-adv-x="1087" d="M115.5 262q-11.5 80 7.5 160q16 96 53 185t95.5 167t145.5 124t189 46q160 0 223 -104l19 84h151l-141 -828q-4 -25 7.5 -38t41.5 -5l70 31l16 -49q-80 -59 -172 -60h-14q-49 0 -75.5 28t-29.5 54l-2 29q-98 -109 -260 -109q-106 0 -180 39t-103.5 102.5t-41 143.5z M288 306.5q1 -107.5 45 -183.5t128 -76q100 0 176 60.5t98 185.5l58 338q25 127 -37 186.5t-160 59.5q-123 0 -194.5 -96.5t-98.5 -250.5q-16 -116 -15 -223.5zM358 1075l344 311l242 -311h-78l-194 133l-236 -133h-78z" />
<glyph unicode="&#xe3;" horiz-adv-x="1087" d="M115.5 262q-11.5 80 7.5 160q16 96 53 185t95.5 167t145.5 124t189 46q160 0 223 -104l19 84h151l-141 -828q-4 -25 7.5 -38t41.5 -5l70 31l16 -49q-80 -59 -172 -60h-14q-49 0 -75.5 28t-29.5 54l-2 29q-98 -109 -260 -109q-106 0 -180 39t-103.5 102.5t-41 143.5z M288 306.5q1 -107.5 45 -183.5t128 -76q100 0 176 60.5t98 185.5l58 338q25 127 -37 186.5t-160 59.5q-123 0 -194.5 -96.5t-98.5 -250.5q-16 -116 -15 -223.5zM348 1130q33 80 87 132.5t126 52.5q39 0 119 -41t123 -41q33 0 64.5 22.5t41.5 51.5h49q-78 -184 -206 -185 q-41 0 -124 41t-126 41q-33 0 -63.5 -22.5t-39.5 -51.5h-51z" />
<glyph unicode="&#xe4;" horiz-adv-x="1087" d="M115.5 262q-11.5 80 7.5 160q16 96 53 185t95.5 167t145.5 124t189 46q160 0 223 -104l19 84h151l-141 -828q-4 -25 7.5 -38t41.5 -5l70 31l16 -49q-80 -59 -172 -60h-14q-49 0 -75.5 28t-29.5 54l-2 29q-98 -109 -260 -109q-106 0 -180 39t-103.5 102.5t-41 143.5z M288 306.5q1 -107.5 45 -183.5t128 -76q100 0 176 60.5t98 185.5l58 338q25 127 -37 186.5t-160 59.5q-123 0 -194.5 -96.5t-98.5 -250.5q-16 -116 -15 -223.5zM379 1231q10 47 47 77.5t82 30.5q43 0 68.5 -31.5t17.5 -76.5t-45 -77t-80 -32q-45 0 -71.5 32t-18.5 77z M758 1231q8 45 46 76.5t81 31.5q45 0 70.5 -31.5t17.5 -76.5t-44 -77t-83 -32q-43 0 -69.5 32t-18.5 77z" />
<glyph unicode="&#xe5;" horiz-adv-x="1087" d="M115.5 262q-11.5 80 7.5 160q16 96 53 185t95.5 167t145.5 124t189 46q160 0 223 -104l19 84h151l-141 -828q-4 -25 7.5 -38t41.5 -5l70 31l16 -49q-80 -59 -172 -60h-14q-49 0 -75.5 28t-29.5 54l-2 29q-98 -109 -260 -109q-106 0 -180 39t-103.5 102.5t-41 143.5z M288 306.5q1 -107.5 45 -183.5t128 -76q100 0 176 60.5t98 185.5l58 338q25 127 -37 186.5t-160 59.5q-123 0 -194.5 -96.5t-98.5 -250.5q-16 -116 -15 -223.5zM516 1243q12 74 70.5 124t132.5 50q70 0 114 -54t33 -120q-14 -80 -71.5 -132t-137.5 -52q-70 0 -112.5 56 t-28.5 128zM588 1243q-12 -45 10.5 -80t69.5 -35q45 0 82.5 34t46.5 81q10 45 -16.5 77t-73.5 32q-41 0 -75 -35t-44 -74z" />
<glyph unicode="&#xe6;" horiz-adv-x="1503" d="M88 227q27 164 240 230l358 104l10 68q27 123 1.5 188.5t-122.5 65.5q-88 0 -139 -55.5t-53 -110.5l-4 -53h-172q16 76 61 131q117 150 324 149q209 0 250 -127q141 127 303 127q193 0 265.5 -118.5t35.5 -329.5h-610q-14 -106 -4 -204.5t64 -169.5t134 -71 q78 0 151.5 44t121.5 110l55 -37q-139 -190 -371 -191q-207 0 -285 136q-143 -135 -344 -136q-135 0 -214 63.5t-56 186.5zM254 229q-12 -66 29 -123t116 -57q168 0 271 135q-33 96 -8 238q6 31 10 72l-254 -76q-137 -37 -164 -189zM858 563h424q70 319 -137 320 q-117 0 -187.5 -87.5t-99.5 -232.5z" />
<glyph unicode="&#xe7;" horiz-adv-x="937" d="M107.5 208q-19.5 95 1.5 212q16 94 55 183t98.5 168t148.5 126t193 47q156 0 233.5 -69.5t84.5 -188.5h-185q4 86 -33.5 141.5t-109.5 55.5q-236 0 -301 -355q-16 -119 -7 -224t63 -177t143 -72q98 0 166.5 60.5t99.5 130.5l63 -17q-16 -37 -43.5 -73.5t-74 -79.5 t-116 -71t-151.5 -28q-143 0 -226 68t-102.5 163zM199 -272l254 198h77l-241 -305z" />
<glyph unicode="&#xe8;" horiz-adv-x="972" d="M111 422q37 207 167 364.5t328 157.5q197 0 271.5 -118.5t37.5 -329.5h-624q-12 -104 -2 -202.5t65.5 -170.5t139.5 -72q104 0 179 62.5t105 132.5l64 -17q-41 -88 -142.5 -168.5t-255.5 -83.5q-143 0 -227 68t-105 164t-1 213zM301 563h432q72 319 -137 320 q-225 -1 -295 -320zM408 1249l124 111l226 -301h-88z" />
<glyph unicode="&#xe9;" horiz-adv-x="972" d="M111 422q37 207 167 364.5t328 157.5q197 0 271.5 -118.5t37.5 -329.5h-624q-12 -104 -2 -202.5t65.5 -170.5t139.5 -72q104 0 179 62.5t105 132.5l64 -17q-41 -88 -142.5 -168.5t-255.5 -83.5q-143 0 -227 68t-105 164t-1 213zM301 563h432q72 319 -137 320 q-225 -1 -295 -320zM455 1059l331 301l84 -111l-329 -190h-86z" />
<glyph unicode="&#xea;" horiz-adv-x="972" d="M111 422q37 207 167 364.5t328 157.5q197 0 271.5 -118.5t37.5 -329.5h-624q-12 -104 -2 -202.5t65.5 -170.5t139.5 -72q104 0 179 62.5t105 132.5l64 -17q-41 -88 -142.5 -168.5t-255.5 -83.5q-143 0 -227 68t-105 164t-1 213zM301 563h432q72 319 -137 320 q-225 -1 -295 -320zM338 1075l344 311l242 -311h-78l-195 133l-235 -133h-78z" />
<glyph unicode="&#xeb;" horiz-adv-x="972" d="M111 422q37 207 167 364.5t328 157.5q197 0 271.5 -118.5t37.5 -329.5h-624q-12 -104 -2 -202.5t65.5 -170.5t139.5 -72q104 0 179 62.5t105 132.5l64 -17q-41 -88 -142.5 -168.5t-255.5 -83.5q-143 0 -227 68t-105 164t-1 213zM301 563h432q72 319 -137 320 q-225 -1 -295 -320zM373 1231q10 47 47 77.5t82 30.5q43 0 68.5 -31.5t17.5 -76.5t-45 -77t-80 -32q-45 0 -71.5 32t-18.5 77zM751.5 1231q8.5 45 46.5 76.5t81 31.5q45 0 70.5 -31.5t17 -76.5t-44 -77t-82.5 -32q-43 0 -70 32t-18.5 77z" />
<glyph unicode="&#xec;" horiz-adv-x="569" d="M12 0l11 63h163l138 801h-146l10 60l299 18l-151 -879h162l-11 -63h-475zM143 1249l125 111l226 -301h-88z" />
<glyph unicode="&#xed;" horiz-adv-x="563" d="M12 0l11 63h163l138 801h-146l10 60l299 18l-151 -879h162l-11 -63h-475zM209 1059l332 301l84 -111l-330 -190h-86z" />
<glyph unicode="&#xee;" horiz-adv-x="577" d="M12 0l11 63h163l138 801h-146l10 60l299 18l-151 -879h162l-11 -63h-475zM125 1075l344 311l242 -311h-78l-195 133l-235 -133h-78z" />
<glyph unicode="&#xef;" horiz-adv-x="563" d="M12 0l11 63h163l138 801h-146l10 60l299 18l-151 -879h162l-11 -63h-475zM129 1231q10 47 47 77.5t82 30.5q43 0 68.5 -31.5t17.5 -76.5t-45 -77t-80 -32q-45 0 -71.5 32t-18.5 77zM508 1231q8 45 46 76.5t81 31.5q45 0 70.5 -31.5t17.5 -76.5t-44 -77t-83 -32 q-43 0 -69.5 32t-18.5 77z" />
<glyph unicode="&#xf0;" horiz-adv-x="1019" d="M137 422q16 94 54 183t96.5 168t146.5 126t191 47q109 0 184 -98q-10 172 -111 301l-211 -107l-26 56l194 98q-121 115 -303 115l13 63q217 0 378 -135l301 154l25 -56l-278 -141q233 -246 153 -688q-20 -127 -80.5 -244t-169 -202t-237.5 -85q-205 0 -278 130.5 t-42 314.5zM304 302.5q1 -109.5 43 -186.5t120 -77q238 0 297 360q18 123 16 230.5t-45 181.5t-121 74q-123 0 -195.5 -98.5t-99.5 -256.5q-16 -118 -15 -227.5z" />
<glyph unicode="&#xf1;" horiz-adv-x="1075" d="M12 0l8 61h127l140 801h-129l12 60l281 20l-17 -100q98 102 271 102q311 0 251 -315l-98 -568h127l-8 -61h-410l8 61h132l98 568q47 246 -139 245q-84 0 -164 -54t-103 -179l-100 -580h129l-8 -61h-408zM401 1130q33 80 87.5 132.5t125.5 52.5q39 0 119 -41t123 -41 q33 0 64.5 22.5t42.5 51.5h49q-78 -184 -207 -185q-41 0 -124 41t-126 41q-33 0 -63.5 -22.5t-38.5 -51.5h-52z" />
<glyph unicode="&#xf2;" horiz-adv-x="991" d="M127 422q35 211 161 367.5t322 156.5q104 0 178 -39t107 -101.5t45 -141t-6 -158.5q-23 -131 -81 -246t-166.5 -199t-242.5 -84q-205 0 -277.5 130.5t-39.5 314.5zM291 302.5q0 -109.5 43 -186.5t121 -77q238 0 297 360q18 123 16 230.5t-45 181.5t-123 74 q-123 0 -194.5 -98.5t-98.5 -256.5q-16 -118 -16 -227.5zM455 1249l125 111l225 -301h-88z" />
<glyph unicode="&#xf3;" horiz-adv-x="991" d="M127 422q35 211 161 367.5t322 156.5q104 0 178 -39t107 -101.5t45 -141t-6 -158.5q-23 -131 -81 -246t-166.5 -199t-242.5 -84q-205 0 -277.5 130.5t-39.5 314.5zM291 302.5q0 -109.5 43 -186.5t121 -77q238 0 297 360q18 123 16 230.5t-45 181.5t-123 74 q-123 0 -194.5 -98.5t-98.5 -256.5q-16 -118 -16 -227.5zM420 1059l332 301l84 -111l-330 -190h-86z" />
<glyph unicode="&#xf4;" horiz-adv-x="991" d="M127 422q35 211 161 367.5t322 156.5q104 0 178 -39t107 -101.5t45 -141t-6 -158.5q-23 -131 -81 -246t-166.5 -199t-242.5 -84q-205 0 -277.5 130.5t-39.5 314.5zM291 302.5q0 -109.5 43 -186.5t121 -77q238 0 297 360q18 123 16 230.5t-45 181.5t-123 74 q-123 0 -194.5 -98.5t-98.5 -256.5q-16 -118 -16 -227.5zM346 1075l344 311l242 -311h-78l-195 133l-235 -133h-78z" />
<glyph unicode="&#xf5;" horiz-adv-x="997" d="M127 422q35 211 161 367.5t322 156.5q104 0 178 -39t107 -101.5t45 -141t-6 -158.5q-23 -131 -81 -246t-166.5 -199t-242.5 -84q-205 0 -277.5 130.5t-39.5 314.5zM291 302.5q0 -109.5 43 -186.5t121 -77q238 0 297 360q18 123 16 230.5t-45 181.5t-123 74 q-123 0 -194.5 -98.5t-98.5 -256.5q-16 -118 -16 -227.5zM358 1130q33 80 87.5 132.5t125.5 52.5q39 0 119 -41t123 -41q33 0 64.5 22.5t42.5 51.5h49q-78 -184 -207 -185q-41 0 -124 41t-126 41q-33 0 -63.5 -22.5t-38.5 -51.5h-52z" />
<glyph unicode="&#xf6;" horiz-adv-x="995" d="M127 422q35 211 161 367.5t322 156.5q104 0 178 -39t107 -101.5t45 -141t-6 -158.5q-23 -131 -81 -246t-166.5 -199t-242.5 -84q-205 0 -277.5 130.5t-39.5 314.5zM291 302.5q0 -109.5 43 -186.5t121 -77q238 0 297 360q18 123 16 230.5t-45 181.5t-123 74 q-123 0 -194.5 -98.5t-98.5 -256.5q-16 -118 -16 -227.5zM369 1231q10 47 47 77.5t82 30.5q43 0 68.5 -31.5t17 -76.5t-45 -77t-79.5 -32q-45 0 -71.5 32t-18.5 77zM747.5 1231q8.5 45 46 76.5t80.5 31.5q45 0 71 -31.5t17.5 -76.5t-44 -77t-82.5 -32q-43 0 -70 32t-18.5 77 z" />
<glyph unicode="&#xf7;" horiz-adv-x="1005" d="M117 420l14 76h821l-14 -76h-821zM338 92q8 51 48 87t93 36q49 0 77 -35t22 -88q-8 -51 -50.5 -86t-93.5 -35q-49 0 -76.5 35t-19.5 86zM463 809q8 51 47 86t88 35q53 0 82 -35t20 -86q-10 -53 -50 -88t-91 -35t-78.5 35t-17.5 88z" />
<glyph unicode="&#xf8;" horiz-adv-x="1013" d="M35 -168l172 236q-113 117 -72 352q37 209 163 366.5t323 157.5q115 0 194 -47l139 188h88l-172 -233q113 -121 72 -348q-16 -96 -54 -186.5t-97.5 -169t-147.5 -126t-188 -47.5q-115 0 -195 45l-137 -188h-88zM311 211l430 586q-47 86 -131 86q-123 0 -194.5 -98.5 t-98.5 -256.5q-35 -186 -6 -317zM336 125q47 -88 129 -88q238 0 297 360q35 190 6 316z" />
<glyph unicode="&#xf9;" horiz-adv-x="1101" d="M160 862l12 62h279l-111 -629q-41 -246 139 -246q86 0 166 53.5t100 180.5l101 579h-127l12 62h279l-152 -863h129l-10 -59l-281 -20l17 100q-98 -102 -273 -102q-307 0 -252 315l99 567h-127zM500 1249l125 111l225 -301h-88z" />
<glyph unicode="&#xfa;" horiz-adv-x="1101" d="M160 862l12 62h279l-111 -629q-41 -246 139 -246q86 0 166 53.5t100 180.5l101 579h-127l12 62h279l-152 -863h129l-10 -59l-281 -20l17 100q-98 -102 -273 -102q-307 0 -252 315l99 567h-127zM455 1059l331 301l84 -111l-329 -190h-86z" />
<glyph unicode="&#xfb;" horiz-adv-x="1101" d="M160 862l12 62h279l-111 -629q-41 -246 139 -246q86 0 166 53.5t100 180.5l101 579h-127l12 62h279l-152 -863h129l-10 -59l-281 -20l17 100q-98 -102 -273 -102q-307 0 -252 315l99 567h-127zM373 1075l344 311l241 -311h-77l-195 133l-235 -133h-78z" />
<glyph unicode="&#xfc;" horiz-adv-x="1101" d="M160 862l12 62h279l-111 -629q-41 -246 139 -246q86 0 166 53.5t100 180.5l101 579h-127l12 62h279l-152 -863h129l-10 -59l-281 -20l17 100q-98 -102 -273 -102q-307 0 -252 315l99 567h-127zM395 1231q10 47 47 77.5t82 30.5q43 0 68.5 -31.5t17.5 -76.5t-45 -77 t-80 -32q-45 0 -71.5 32t-18.5 77zM774 1231q8 45 46 76.5t81 31.5q45 0 70.5 -31.5t17.5 -76.5t-44 -77t-83 -32q-43 0 -69.5 32t-18.5 77z" />
<glyph unicode="&#xfd;" horiz-adv-x="995" d="M-90 -377l51 58q25 -27 37 -37.5t42 -24.5t64 -14q55 0 95.5 40t83.5 117l131 242l-199 858h-113l13 62h432l-12 -62h-148l145 -641l345 641h-175l13 62h381l-13 -62h-129l-600 -1112q-61 -113 -118.5 -161t-143.5 -48q-108 0 -182 82zM451 1059l331 301l84 -111 l-329 -190h-86z" />
<glyph unicode="&#xfe;" horiz-adv-x="1077" d="M-102 -438l12 61h141l301 1733h-143l10 57l299 21l-104 -592q102 102 260 102q104 0 179 -37t108.5 -97t47 -139t-4.5 -165q-23 -133 -80.5 -248t-165 -198t-242.5 -83q-170 0 -233 109l-80 -463h143l-12 -61h-436zM315 276q-18 -109 44.5 -169t166.5 -60q238 0 297 354 q35 205 -3 338t-161 133q-100 0 -180 -57t-104 -184z" />
<glyph unicode="&#xff;" horiz-adv-x="999" d="M-106 -377l51 58q25 -27 37 -37.5t41.5 -24.5t64.5 -14q55 0 95 40t83 117l131 242l-198 858h-113l12 62h432l-12 -62h-147l145 -641l344 641h-174l12 62h381l-12 -62h-129l-600 -1112q-61 -113 -118.5 -161t-143.5 -48q-108 0 -182 82zM362 1231q10 47 47 77.5t83 30.5 q43 0 68.5 -31.5t17 -76.5t-45 -77t-79.5 -32q-45 0 -72 32t-19 77zM741.5 1231q8.5 45 46 76.5t80.5 31.5q45 0 71 -31.5t17.5 -76.5t-44 -77t-83.5 -32q-43 0 -69.5 32t-18 77z" />
<glyph unicode="&#x152;" horiz-adv-x="1886" d="M151 432q1 90 13 184q63 373 274 580q174 174 426 174q88 0 170 -20h948l-65 -361h-74l-55 287h-465l-90 -518h323l27 147h92l-65 -377h-92l26 148h-323l-107 -602h481l158 286h72l-62 -360h-979q-86 -20 -161 -20q-123 0 -216.5 36.5t-144.5 99t-81.5 144.5t-29.5 172z M348 517q4 -130 28.5 -234.5t91.5 -171t165 -66.5q231 0 336 160l143 848q-6 53 -20.5 93t-42 79t-78.5 59.5t-123 20.5q-205 0 -321.5 -146.5t-155.5 -384.5q-27 -127 -23 -257z" />
<glyph unicode="&#x153;" horiz-adv-x="1605" d="M127 422q35 209 161 365.5t322 156.5q227 0 297 -166q137 166 336 166q193 0 265.5 -118.5t35.5 -329.5h-610q-31 -164 21.5 -304.5t172.5 -140.5q78 0 152 44t119 110l57 -37q-139 -190 -370.5 -190.5t-307.5 169.5q-33 -43 -41 -49q-125 -121 -293 -121 q-205 0 -277.5 130.5t-39.5 314.5zM291 302.5q0 -109.5 43 -186.5t121 -77q125 0 197.5 99.5t99.5 260.5q18 123 16 230.5t-46 180.5t-122 73q-231 0 -293 -353q-16 -118 -16 -227.5zM946 563h424q66 319 -137 320q-117 0 -187.5 -87.5t-99.5 -232.5z" />
<glyph unicode="&#x178;" horiz-adv-x="1226" d="M211 1276l14 74h510l-14 -74h-168l178 -580l393 580h-200l14 74h448l-14 -74h-164l-446 -655l-94 -547h200l-12 -74h-565l12 74h197l86 493l-221 709h-154zM516 1548q10 47 47 78t82 31q43 0 68.5 -32t17.5 -77t-45 -76.5t-80 -31.5q-45 0 -71.5 31.5t-18.5 76.5z M895 1548q8 45 46 77t81 32q45 0 70.5 -32t17.5 -77t-44 -76.5t-83 -31.5q-43 0 -69.5 31.5t-18.5 76.5z" />
<glyph unicode="&#x2c6;" horiz-adv-x="765" d="M240 1075l344 311l241 -311h-77l-195 133l-236 -133h-77z" />
<glyph unicode="&#x2dc;" horiz-adv-x="757" d="M248 1130q33 80 87 132.5t126 52.5q39 0 118.5 -41t122.5 -41q33 0 65 22.5t42 51.5h49q-78 -184 -207 -185q-41 0 -124 41t-126 41q-33 0 -63.5 -22.5t-38.5 -51.5h-51z" />
<glyph unicode="&#x2013;" horiz-adv-x="837" d="M49 498l12 80h822l-13 -80h-821z" />
<glyph unicode="&#x2014;" horiz-adv-x="1726" d="M106 498l13 80h1595l-12 -80h-1596z" />
<glyph unicode="&#x2018;" horiz-adv-x="450" d="M260 1135q25 123 131 211q33 29 69 51t54 30l18 9l33 -41q-63 -37 -100 -68q-74 -63 -84 -133q8 2 25 2q43 0 70.5 -36t19.5 -81q-10 -51 -48 -82.5t-91.5 -31.5t-83 43t-13.5 127z" />
<glyph unicode="&#x2019;" horiz-adv-x="450" d="M225 1012q63 37 101 67q74 63 84 133q-8 -2 -25 -2q-43 0 -70.5 36t-19.5 81q10 51 48 83t91 32t83 -43t13 -127q-25 -123 -131 -211q-33 -29 -68.5 -51.5t-54.5 -30.5l-18 -8z" />
<glyph unicode="&#x201a;" horiz-adv-x="450" d="M-2 -221q63 37 100 67q74 63 84 134q-8 -2 -24 -3q-43 0 -71 36t-19 81q10 51 48 83t91 32t82.5 -43t13.5 -127q-25 -123 -131 -211q-33 -29 -68.5 -51.5t-54.5 -30.5l-18 -8z" />
<glyph unicode="&#x201c;" horiz-adv-x="774" d="M260 1135q25 123 131 211q33 29 69 51t54 30l18 9l33 -41q-63 -37 -100 -68q-74 -63 -84 -133q8 2 25 2q43 0 70.5 -36t19.5 -81q-10 -51 -48 -82.5t-91.5 -31.5t-83 43t-13.5 127zM578 1135q25 123 131 211q33 29 68.5 51t53.5 30l19 9l33 -41q-63 -37 -101 -68 q-74 -63 -84 -133q8 2 25 2q43 0 70.5 -36t19.5 -81q-10 -51 -48 -82.5t-91 -31.5t-82.5 43t-13.5 127z" />
<glyph unicode="&#x201d;" horiz-adv-x="774" d="M225 1012q63 37 101 67q74 63 84 133q-8 -2 -25 -2q-43 0 -70.5 36t-19.5 81q10 51 48 83t91 32t83 -43t13 -127q-25 -123 -131 -211q-33 -29 -68.5 -51.5t-54.5 -30.5l-18 -8zM547 1012q63 37 100 67q74 63 84 133q-8 -2 -24 -2q-43 0 -71 36t-20 81q10 51 48 83 t91.5 32t83 -43t13.5 -127q-25 -123 -131 -211q-33 -29 -69 -51.5t-54 -30.5l-18 -8z" />
<glyph unicode="&#x201e;" horiz-adv-x="774" d="M-2 -221q63 37 100 67q74 63 84 134q-8 -2 -24 -3q-43 0 -71 36t-19 81q10 51 48 83t91 32t82.5 -43t13.5 -127q-25 -123 -131 -211q-33 -29 -68.5 -51.5t-54.5 -30.5l-18 -8zM319 -221q63 37 101 67q74 63 84 134q-8 -2 -25 -3q-43 0 -70.5 36t-19.5 81q10 51 48 83 t91.5 32t83 -43t13.5 -127q-25 -123 -131 -211q-33 -29 -69 -51.5t-54 -30.5l-19 -8z" />
<glyph unicode="&#x2022;" horiz-adv-x="495" d="M229 616q8 66 62.5 111t120.5 45q61 0 96 -44t24 -112q-8 -66 -61 -109.5t-119 -43.5q-63 0 -98 43.5t-25 109.5z" />
<glyph unicode="&#x2026;" horiz-adv-x="1292" d="M61 94q8 51 50.5 87t93.5 36q49 0 76.5 -36t17.5 -87q-10 -53 -49 -88t-90 -35t-79 35t-20 88zM479 94q10 53 52 88t94 35q49 0 77.5 -36t18.5 -87q-8 -51 -49 -87t-94 -36q-49 0 -78 36t-21 87zM920 94q10 53 50 88t91 35t78.5 -36t17.5 -87q-8 -51 -49 -87t-92 -36 q-49 0 -76.5 35t-19.5 88z" />
<glyph unicode="&#x2039;" horiz-adv-x="622" d="M150 477l481 395l28 -36l-329 -359l209 -358l-45 -37z" />
<glyph unicode="&#x203a;" horiz-adv-x="622" d="M61 119l330 358l-209 359l45 36l342 -395l-479 -395z" />
<glyph unicode="&#x20ac;" horiz-adv-x="1232" d="M53 502l15 82h168l4 30q18 100 34 152h-174l15 82h186q90 229 249 374.5t388 145.5q260 0 383 -164l-39 -219h-121q12 162 -58.5 240t-176.5 78q-354 0 -465 -455h477l-14 -82h-480q-10 -59 -18 -182h465l-14 -82h-453q4 -201 74.5 -326t212.5 -125q207 0 358 150l49 -51 q-176 -172 -420 -173q-260 0 -372.5 149.5t-98.5 375.5h-174z" />
<glyph unicode="&#x2122;" horiz-adv-x="1173" d="M223 1188l27 153h403l-26 -153h-45l-21 104h-76l-77 -434h69l-8 -49h-217l8 49h66l77 434h-77l-58 -104h-45zM604 809l6 49h60l75 434h-57l8 49h146l82 -403l219 403h149l-8 -49h-59l-76 -434h59l-8 -49h-205l9 49h59l57 336l-205 -383l-55 -2l-76 389l-61 -340h59 l-8 -49h-170z" />
<glyph unicode="&#xe000;" horiz-adv-x="925" d="M0 925h925v-925h-925v925z" />
<glyph unicode="&#xfb01;" horiz-adv-x="1277" d="M-270 -377l57 53q66 -74 160 -73q152 0 190 223l176 1036h-145l10 62h148l32 184q29 166 133.5 248t225.5 82q131 0 209 -82l-60 -53q-61 74 -159 73q-152 0 -193 -231l-37 -221h277l-13 -62h-276l-172 -991q-29 -166 -133.5 -248t-225.5 -82q-130 0 -204 82zM680 0 l10 61h162l139 801h-147l12 60l299 20l-151 -881h161l-10 -61h-475zM1007.5 1229q8.5 51 50.5 87t95 36q49 0 76.5 -36t19.5 -87q-10 -53 -51 -88t-92 -35q-49 0 -78 36t-20.5 87z" />
<glyph unicode="&#xfb02;" horiz-adv-x="1212" d="M-270 -377l57 53q66 -74 160 -73q152 0 190 223l176 1036h-145l10 62h148l32 184q29 166 133.5 248t225.5 82q131 0 209 -82l-60 -53q-61 74 -159 73q-152 0 -193 -231l-37 -221h277l-13 -62h-276l-172 -991q-29 -166 -133.5 -248t-225.5 -82q-130 0 -204 82zM672 0l8 61 h129l225 1295h-145l12 57l299 21l-237 -1373h127l-7 -61h-411z" />
<glyph unicode="&#xfb03;" horiz-adv-x="1906" d="M1343 0l11 61h161l140 801h-148l12 60l299 20l-151 -881h162l-11 -61h-475zM1671 1229q8 51 50 87t95 36q49 0 77 -36q21 -28 22 -65q0 -11 -2 -22q-10 -53 -51.5 -88t-92.5 -35q-49 0 -78 36q-22 28 -22 65q0 11 2 22zM414 -377l57 53q66 -74 160 -73q152 0 191 223 l176 1036h-146l11 62h147l33 184q29 166 133 248t225 82q131 0 209 -82l-59 -53q-61 74 -160 73q-152 0 -193 -231l-36 -221h276l-12 -62h-277l-172 -991q-29 -166 -133 -248t-225 -82q-131 0 -205 82zM-252 -377l57 53q66 -74 160 -73q152 0 191 223l176 1036h-146l11 62 h147l33 184q29 166 133 248t225 82q131 0 209 -82l-59 -53q-61 74 -160 73q-152 0 -193 -231l-36 -221h276l-12 -62h-277l-172 -991q-29 -166 -133 -248t-225 -82q-131 0 -205 82z" />
<glyph unicode="&#xfb04;" horiz-adv-x="1871" d="M1343 0l8 61h130l225 1295h-146l13 57l299 21l-238 -1373h127l-6 -61h-412zM414 -377l57 53q66 -74 160 -73q152 0 191 223l176 1036h-146l11 62h147l33 184q29 166 133 248t225 82q131 0 209 -82l-59 -53q-61 74 -160 73q-152 0 -193 -231l-36 -221h276l-12 -62h-277 l-172 -991q-29 -166 -133 -248t-225 -82q-131 0 -205 82zM-252 -377l57 53q66 -74 160 -73q152 0 191 223l176 1036h-146l11 62h147l33 184q29 166 133 248t225 82q131 0 209 -82l-59 -53q-61 74 -160 73q-152 0 -193 -231l-36 -221h276l-12 -62h-277l-172 -991 q-29 -166 -133 -248t-225 -82q-131 0 -205 82z" />
</font>
</defs>
</svg>
