<?xml version="1.0" standalone="no"?>
<!DOCTYPE svg PUBLIC "-//W3C//DTD SVG 1.1//EN" "http://www.w3.org/Graphics/SVG/1.1/DTD/svg11.dtd" >
<svg xmlns="http://www.w3.org/2000/svg">
<metadata>
This is a custom SVG webfont generated by Font Squirrel.
Copyright   : Copyright c 2008 by CastleType All rights reserved
Designer    : Jason Castle
Foundry     : CastleType
Foundry URL : httpwwwCastleTypecom
</metadata>
<defs>
<font id="StandardCTExtraBold" horiz-adv-x="1327" >
<font-face units-per-em="2048" ascent="1638" descent="-410" />
<missing-glyph horiz-adv-x="552" />
<glyph unicode=" "  horiz-adv-x="552" />
<glyph unicode="&#x09;" horiz-adv-x="552" />
<glyph unicode="&#xa0;" horiz-adv-x="552" />
<glyph unicode="!" horiz-adv-x="563" d="M123 0v322h317v-322h-317zM125 1036v398h313v-398l-94 -633h-127z" />
<glyph unicode="&#x22;" horiz-adv-x="948" d="M102 707v727h336v-727h-336zM559 707v727h336v-727h-336z" />
<glyph unicode="#" horiz-adv-x="1138" d="M66 397v181h190l37 249h-166v181h190l56 397h194l-55 -397h195l53 397h194l-53 -397h150v-181h-177l-32 -249h147v-181h-174l-55 -397h-195l56 397h-193l-57 -397h-195l57 397h-167zM453 578h194l33 249h-193z" />
<glyph unicode="$" horiz-adv-x="1337" d="M86 299l240 227q47 -78 150.5 -146.5t248.5 -68.5q70 0 135.5 32t65.5 101q0 68 -41 94.5t-127 39.5l-295 40q-127 18 -216 105.5t-89 247.5q0 188 110.5 288.5t280.5 126.5v148h246v-152q152 -25 254 -93t149 -142l-217 -197q-41 68 -123 125.5t-207 57.5 q-166 0 -166 -115q0 -41 23.5 -65.5t49.5 -32t75 -13.5l252 -33q367 -51 366 -401q0 -162 -117.5 -282.5t-338.5 -145.5v-145h-246v147q-264 39 -463 252z" />
<glyph unicode="%" horiz-adv-x="2107" d="M61 987q0 225 109 346t274 121q168 0 276.5 -120t108.5 -347q0 -225 -108.5 -347t-276.5 -122q-166 0 -274.5 124t-108.5 345zM305 987q0 -279 141.5 -278.5t141.5 278.5q0 141 -39 209t-102.5 68t-102.5 -68t-39 -209zM514 -43l829 1493h232l-823 -1493h-238zM1278 446 q0 225 108.5 346t274.5 121q168 0 276.5 -119.5t108.5 -347.5q0 -225 -108.5 -347t-276.5 -122q-166 0 -274.5 124t-108.5 345zM1522 446q0 -279 141 -278.5t141 278.5q0 141 -39 209t-102.5 68t-102 -68t-38.5 -209z" />
<glyph unicode="&#x26;" horiz-adv-x="1280" d="M61 389q0 92 27 168t76 128t91 84t99 62q-61 94 -61 226q0 135 101.5 218t238.5 83q139 0 238.5 -69.5t99.5 -231.5q0 -119 -63.5 -192.5t-172.5 -133.5l133 -207q68 96 68 205h276q-43 -264 -165 -426q45 -35 104 -35h68v-268h-127q-150 0 -250 90q-150 -117 -314 -117 q-186 0 -326.5 103.5t-140.5 312.5zM358 428q0 -76 47.5 -117t116.5 -41q100 0 150 52l-178 286q-43 -25 -67 -41t-46.5 -54t-22.5 -85zM569 1057q0 -43 39 -125q115 53 115 135q0 39 -23.5 61.5t-56.5 22.5q-35 0 -54.5 -26.5t-19.5 -67.5z" />
<glyph unicode="'" horiz-adv-x="569" d="M102 707v727h336v-727h-336z" />
<glyph unicode="(" horiz-adv-x="757" d="M61 719q0 524 347 895q106 113 198 168l86 -105q-57 -55 -93 -105t-87 -157.5t-77.5 -284t-26.5 -411.5q0 -535 217 -866q41 -61 71 -93l-86 -108q-12 8 -31.5 22.5t-77 64.5t-108.5 108.5t-114.5 152.5t-109.5 195.5t-77 240t-31 283.5z" />
<glyph unicode=")" horiz-adv-x="757" d="M61 -240q12 12 32 35t69 107t88 184t69.5 271t30.5 362q0 236 -26.5 412t-77.5 283.5t-87 157.5t-93 105l86 105q12 -6 31.5 -19.5t75.5 -62.5t107.5 -104.5t115 -148.5t108.5 -194.5t75.5 -243t30.5 -290.5q0 -508 -350 -891q-106 -117 -199 -176z" />
<glyph unicode="*" horiz-adv-x="923" d="M102 1120l56 152l221 -88l-4 250h166l-4 -250l231 90l53 -154l-239 -73l153 -197l-131 -98l-147 206l-142 -206l-131 96l148 201z" />
<glyph unicode="+" horiz-adv-x="1222" d="M102 580v276h369v379h281v-379h368v-276h-368v-377h-281v377h-369z" />
<glyph unicode="," horiz-adv-x="581" d="M123 0v358h336v-313q0 -100 -56.5 -213t-146.5 -203l-117 88q55 66 97.5 146t42.5 137h-156z" />
<glyph unicode="-" horiz-adv-x="722" d="M123 432v283h477v-283h-477z" />
<glyph unicode="." horiz-adv-x="581" d="M123 0v346h336v-346h-336z" />
<glyph unicode="/" horiz-adv-x="899" d="M20 -20l615 1474h244l-611 -1474h-248z" />
<glyph unicode="0" horiz-adv-x="1296" d="M61 717q0 365 165 559t421 194t422 -193.5t166 -559.5q0 -360 -166 -556t-422 -196q-254 0 -420 198t-166 554zM414 717q0 -471 235 -471q238 0 238 471q0 242 -65.5 356.5t-172 114.5t-171 -114.5t-64.5 -356.5z" />
<glyph unicode="1" horiz-adv-x="944" d="M150 967v243q113 0 190.5 63.5t105.5 160.5h269v-1434h-338v924q0 31 -5 37t-34 6h-188z" />
<glyph unicode="2" horiz-adv-x="1263" d="M82 864v135q0 207 153.5 340.5t378.5 133.5q268 0 418 -129.5t150 -352.5q0 -162 -92.5 -279.5t-255.5 -226.5l-306 -200h631v-285h-1059v276l389 316q203 166 272.5 246t69.5 174q0 74 -56 134t-140 60q-106 0 -171 -60.5t-65 -158.5l11 -156z" />
<glyph unicode="3" horiz-adv-x="1236" d="M61 406v92l320 22v-67q0 -100 59.5 -160t159.5 -60q80 0 154.5 42t74.5 143q0 55 -23.5 96t-53 59.5t-72.5 29.5t-63.5 12t-45.5 1h-88v252h92q90 0 158 40t68 130q0 80 -56.5 125t-138.5 45q-106 0 -151 -62.5t-52 -176.5l-327 12q0 90 27.5 173t87 156.5t169 118 t254.5 44.5q231 0 377 -114t146 -288q0 -121 -68 -200.5t-147 -108.5q84 -25 169 -114t85 -230q0 -213 -163 -334t-403 -121q-233 0 -391 116t-158 327z" />
<glyph unicode="4" horiz-adv-x="1269" d="M61 332v231l340 436l120 170l126 187l51 78h301v-854h209v-248h-209v-332h-311v332h-627zM362 580h326v434h-6z" />
<glyph unicode="5" horiz-adv-x="1222" d="M61 395v68h297q0 -100 58.5 -167t161.5 -67q125 0 182 79t57 181q0 113 -67.5 180.5t-169.5 67.5q-43 0 -81 -13t-59.5 -32.5t-37 -39t-21.5 -34.5l-6 -12l-264 25l122 803h861l-39 -271h-580l-37 -219q90 55 246 55q199 0 338 -140t139 -374q0 -244 -168 -383t-424 -139 q-225 0 -366.5 125t-141.5 307z" />
<glyph unicode="6" horiz-adv-x="1241" d="M61 711q0 377 165 568t456 191q66 0 135.5 -18t143 -60t123 -125t53.5 -196l-324 -24q0 170 -166 170q-115 0 -175 -92.5t-60 -200.5v-76q12 12 34.5 30.5t101.5 48t165 29.5q203 0 335 -132t132 -353t-156 -364.5t-397 -143.5q-272 0 -419 197t-147 551zM426 461 q0 -100 52 -165t149 -65q90 0 145 64.5t55 165.5q0 102 -55 166.5t-145 64.5q-92 0 -146.5 -63.5t-54.5 -167.5z" />
<glyph unicode="7" horiz-adv-x="1148" d="M41 1153v281h1067v-285l-45 -53q-29 -35 -105.5 -150t-140 -239.5t-127 -317t-88.5 -389.5h-393q88 514 453 989q76 98 129 154v10h-750z" />
<glyph unicode="8" horiz-adv-x="1284" d="M61 399q0 137 82 234.5t179 126.5q-80 29 -151 120t-71 195q0 180 145.5 287.5t389.5 107.5t388 -107.5t144 -279.5q0 -127 -63.5 -206.5t-138.5 -110.5q96 -35 177 -127t81 -244q0 -170 -155 -301t-431 -131q-279 0 -427.5 130t-148.5 306zM406 420q0 -84 66.5 -138.5 t162.5 -54.5t163.5 54.5t67.5 138.5q0 90 -65.5 141t-165.5 51q-98 0 -163.5 -51t-65.5 -141zM432 1053q0 -70 57.5 -120t143.5 -50t144.5 48t58.5 122q0 76 -54.5 121t-148.5 45q-86 0 -143.5 -46t-57.5 -120z" />
<glyph unicode="9" horiz-adv-x="1228" d="M61 948q0 231 159 376.5t388 145.5q256 0 407.5 -195.5t151.5 -526.5q0 -360 -152.5 -571.5t-447.5 -211.5q-150 0 -254 40t-152 105.5t-67.5 126t-19.5 125.5l321 23q10 -88 53.5 -130t126.5 -42q59 0 103.5 23.5t67 55.5t37 86t18.5 94t6 99q-10 -10 -29.5 -26.5 t-95.5 -43t-168 -26.5q-190 0 -321.5 129t-131.5 344zM397 965q0 -104 58.5 -172t146.5 -68t149.5 66.5t61.5 173.5q0 113 -61.5 182.5t-149.5 69.5q-86 0 -145.5 -71.5t-59.5 -180.5z" />
<glyph unicode=":" horiz-adv-x="581" d="M123 0v346h336v-346h-336zM123 711v346h336v-346h-336z" />
<glyph unicode=";" horiz-adv-x="581" d="M123 0v358h336v-313q0 -104 -50.5 -217t-136.5 -199l-116 88q51 61 90 142.5t39 140.5h-162zM123 711v346h336v-346h-336z" />
<glyph unicode="&#x3c;" horiz-adv-x="1220" d="M102 567v273l1016 407v-299l-616 -246l616 -243v-297z" />
<glyph unicode="=" horiz-adv-x="1220" d="M102 324v276h1016v-276h-1016zM102 805v276h1016v-276h-1016z" />
<glyph unicode="&#x3e;" horiz-adv-x="1220" d="M102 162v297l615 243l-615 246v299l1016 -407v-273z" />
<glyph unicode="?" horiz-adv-x="1118" d="M61 1030q2 41 12.5 86t44.5 108.5t84 111.5t144 83t215 35q129 0 229.5 -37t155.5 -97t83 -126t28 -133q0 -98 -31 -171t-76 -110t-98 -70.5t-98 -57t-76 -65.5t-31 -98v-86h-276v129q0 88 37.5 155t91 105.5t108 73.5t92 79t37.5 102q0 72 -59.5 112.5t-126.5 40.5 q-70 0 -116 -25.5t-65.5 -72.5t-26.5 -90t-7 -103zM344 0v324h322v-324h-322z" />
<glyph unicode="@" horiz-adv-x="1638" d="M72 717q0 315 224 532t540 217q283 0 490.5 -172t207.5 -440q0 -143 -55.5 -262t-134 -184.5t-154.5 -100.5t-129 -35q-63 0 -102 32t-44 83h-4q-72 -117 -217 -117q-127 0 -221 102.5t-94 241.5q0 199 124 355.5t314 156.5q72 0 137.5 -33.5t98.5 -107.5l30 109h166 l-127 -519q-16 -49 -16 -86q0 -45 35 -45q90 0 162.5 106.5t72.5 262.5q0 231 -152.5 362.5t-389.5 131.5q-256 0 -413 -168t-157 -426q0 -262 166 -424t426 -162q268 0 432 164h168q-100 -156 -261 -240t-349 -84q-324 0 -549 215.5t-225 534.5zM584 641q0 -80 44 -130 t113 -50q102 0 174 96t72 207q0 74 -44 123t-109 49q-104 0 -177 -94.5t-73 -200.5z" />
<glyph unicode="A" d="M0 0l492 1434h313l522 -1434h-358l-64 168h-502l-63 -168h-340zM492 465h309l-88 252q-25 68 -42.5 132t-23.5 95l-4 31h-8q-25 -115 -68 -258z" />
<glyph unicode="B" horiz-adv-x="1363" d="M123 0v1434h700q193 0 325 -93.5t132 -279.5q0 -213 -188 -311v-9q88 -25 149.5 -117t61.5 -214q0 -195 -133.5 -302.5t-319.5 -107.5h-727zM471 285h289q94 0 144 49t50 112.5t-36.5 101.5t-72.5 48t-71 10h-303v-321zM471 868h291q90 0 127 48.5t37 107.5 q0 78 -46 107.5t-106 29.5h-303v-293z" />
<glyph unicode="C" horiz-adv-x="1458" d="M61 694q0 168 45.5 304.5t116 222.5t162.5 144t180 81.5t174 23.5q446 0 645 -374l-294 -174q-109 250 -324 249q-145 0 -241.5 -117.5t-96.5 -334.5q0 -180 89 -310t251 -130q111 0 202 65.5t138 194.5l289 -183q-78 -158 -242 -275.5t-389 -117.5q-164 0 -300 62.5 t-223 167t-134.5 233.5t-47.5 268z" />
<glyph unicode="D" horiz-adv-x="1427" d="M123 0v1434h553q307 0 498.5 -195t191.5 -504q0 -365 -194.5 -550t-512.5 -185h-536zM471 307h166q78 0 135 13.5t118.5 53.5t94.5 131t33 228q0 190 -102.5 296t-303.5 106h-141v-828z" />
<glyph unicode="E" horiz-adv-x="1232" d="M123 0v1434h1022v-299h-670v-256h637v-295h-637v-277h696v-307h-1048z" />
<glyph unicode="F" horiz-adv-x="1183" d="M123 0v1434h1020v-299h-668v-314h612v-299h-612v-522h-352z" />
<glyph unicode="G" horiz-adv-x="1515" d="M63 723q0 326 204 536.5t497 210.5q129 0 238.5 -34.5t181 -91t118 -111.5t68.5 -109l-291 -170q-31 70 -107.5 142.5t-180.5 72.5q-174 0 -264.5 -119.5t-90.5 -332.5q0 -190 86 -316.5t269 -126.5q90 0 183 70t93 162v18h-281v285h617v-809h-303v76l-10 6 q-47 -49 -135.5 -84t-184.5 -35q-121 0 -239.5 42t-226 128t-174.5 238.5t-67 351.5z" />
<glyph unicode="H" horiz-adv-x="1441" d="M123 0v1434h352v-537h492v537h352v-1434h-352v594h-492v-594h-352z" />
<glyph unicode="I" horiz-adv-x="598" d="M123 0v1434h352v-1434h-352z" />
<glyph unicode="J" horiz-adv-x="770" d="M37 -16v301h88q39 0 61.5 3t55 16t48 49t15.5 93v988h352v-998q0 -82 -2 -123t-11 -98t-31.5 -94t-59.5 -66q-94 -72 -281 -71h-235z" />
<glyph unicode="K" horiz-adv-x="1437" d="M123 0v1434h352v-545h10l510 545h412l-453 -498v-8l463 -928h-381l-329 680h-13l-219 -219v-461h-352z" />
<glyph unicode="L" horiz-adv-x="1118" d="M123 0v1434h352v-1127h602v-307h-954z" />
<glyph unicode="M" horiz-adv-x="1669" d="M123 0v1434h493l121 -449q33 -119 57.5 -233.5t32.5 -169.5l9 -54h10q29 188 104 463l121 443h475v-1434h-329v612l4 396h-11q-35 -236 -102 -486l-141 -522h-262l-142 530l-117 482h-8q14 -203 15 -398v-614h-330z" />
<glyph unicode="N" horiz-adv-x="1402" d="M123 0v1434h332l235 -377l126 -211q65 -113 97 -178l35 -64h8q-4 166 -4 453v377h328v-1434h-287l-297 465l-126 206l-87 148l-26 49h-8q6 -152 6 -387v-481h-332z" />
<glyph unicode="O" horiz-adv-x="1533" d="M61 713q0 162 46.5 294t120 217t169 142t188.5 80.5t185 23.5q84 0 172 -21.5t185.5 -75.5t172 -136t124 -218t49.5 -304q0 -195 -63.5 -345.5t-168 -235.5t-224.5 -128t-247 -43t-249 47t-226.5 135t-169 237t-64.5 331zM428 723q0 -205 87 -322.5t255 -117.5 q150 0 246 116.5t96 323.5q0 195 -92 317.5t-250 122.5q-150 0 -246 -119.5t-96 -320.5z" />
<glyph unicode="P" horiz-adv-x="1292" d="M123 0v1434h627q135 0 233 -40t149.5 -111t75 -149.5t23.5 -172.5q0 -229 -116 -373t-365 -144h-279v-444h-348zM471 725h207q242 0 242 236q0 205 -242 204h-207v-440z" />
<glyph unicode="Q" horiz-adv-x="1554" d="M61 707q0 201 66 354t172.5 239t225 128t243.5 42q131 0 254 -46t226.5 -134t166 -233.5t62.5 -325.5q0 -279 -91 -416v-14q92 -86 230 -92l-123 -285q-63 0 -147 39t-142 133q-168 -133 -444 -133q-78 0 -163 20.5t-183.5 74t-174 133t-127 214t-51.5 302.5zM420 705 q0 -186 91 -313.5t257 -127.5q168 0 261 131t93 318q0 201 -93 327.5t-271 126.5q-158 0 -248 -128.5t-90 -333.5z" />
<glyph unicode="R" horiz-adv-x="1345" d="M123 0v1434h663q223 0 349.5 -118t126.5 -333q0 -174 -53.5 -276.5t-166.5 -169.5l283 -537h-381l-244 471h-229v-471h-348zM471 748h225q49 0 100.5 16t95.5 64.5t44 119.5q0 98 -56.5 153.5t-127.5 55.5h-281v-409z" />
<glyph unicode="S" horiz-adv-x="1415" d="M41 352l307 158q27 -43 51.5 -75t71.5 -76t117.5 -68.5t156.5 -24.5q45 0 97.5 11.5t100.5 47t48 89.5q0 51 -32.5 83.5t-71.5 44t-105 19.5l-327 47q-145 23 -254 119t-109 272q0 102 37 185.5t95.5 135.5t136 87t156.5 49t159 14q266 0 418.5 -100t216.5 -237 l-301 -158q-127 203 -346 203q-100 0 -153.5 -35t-53.5 -92q0 -35 15 -58.5t49 -36t55.5 -17.5t66.5 -11l281 -37q203 -27 316.5 -139.5t113.5 -305.5q0 -205 -167 -344t-487 -139q-458 0 -659 389z" />
<glyph unicode="T" horiz-adv-x="1226" d="M41 1143v291h1145v-291h-395v-1143h-353v1143h-397z" />
<glyph unicode="U" horiz-adv-x="1396" d="M102 461v973h359v-859q0 -160 52 -228t177 -68q145 0 196.5 64.5t51.5 229.5v861h356v-963q0 -72 -18.5 -140.5t-62.5 -136t-110.5 -117.5t-172 -82t-238.5 -32q-72 0 -145.5 13.5t-155.5 50t-144.5 90t-103.5 143.5t-41 201z" />
<glyph unicode="V" horiz-adv-x="1228" d="M0 1434h348l176 -547q23 -68 49.5 -171.5t40.5 -172.5l17 -70h8q39 252 88 412l170 549h352l-465 -1434h-323z" />
<glyph unicode="W" horiz-adv-x="1798" d="M20 1434h357l139 -635l45 -269h4l43 271l131 633h326l145 -656l43 -252h4l33 250l133 658h355l-338 -1434h-371l-123 594l-43 266h-4l-41 -264l-121 -596h-358z" />
<glyph unicode="X" horiz-adv-x="1429" d="M20 0l484 756v12l-418 666h393l88 -134q45 -68 81 -131t48 -92l15 -28h8q55 117 145 251l88 134h396l-424 -664v-12l485 -758h-408l-151 236q-104 162 -133 237h-8q-35 -88 -131 -235l-156 -238h-402z" />
<glyph unicode="Y" horiz-adv-x="1331" d="M0 1434h395l80 -134q147 -246 195 -360h8q47 123 188 360l80 134h385l-487 -813v-621h-348v621z" />
<glyph unicode="Z" d="M82 0v299l696 836h-641v299h1082v-295l-695 -832h721v-307h-1163z" />
<glyph unicode="[" horiz-adv-x="622" d="M61 -348v2130h500v-264h-153v-1602h153v-264h-500z" />
<glyph unicode="\" horiz-adv-x="899" d="M20 1454h244l615 -1474h-248z" />
<glyph unicode="]" horiz-adv-x="624" d="M61 -84h156v1602h-156v264h502v-2130h-502v264z" />
<glyph unicode="^" horiz-adv-x="1228" d="M123 717l344 772h270l344 -772h-233l-246 551l-246 -551h-233z" />
<glyph unicode="_" horiz-adv-x="1024" d="M0 -150h1004v-100h-1004v100z" />
<glyph unicode="`" horiz-adv-x="628" d="M63 1434h324l184 -275h-209z" />
<glyph unicode="a" horiz-adv-x="1052" d="M61 330q0 143 97.5 215.5t275.5 105.5l215 41v41q0 16 -5 35.5t-37 45.5t-87 26q-123 0 -133 -121h-281q4 180 99.5 265t300.5 85q242 0 342 -86t100 -250v-563q0 -111 33 -170h-299l-25 63q-76 -49 -124 -64t-130 -15q-162 0 -252 86t-90 260zM371 319q0 -41 26.5 -70.5 t85.5 -29.5q82 0 124 60.5t42 113.5v113q-90 -23 -170 -55q-108 -46 -108 -132z" />
<glyph unicode="b" horiz-adv-x="1167" d="M123 0v1434h307v-426h6q117 80 232 79q195 0 316.5 -138t121.5 -427q0 -256 -108.5 -399t-307.5 -143q-72 0 -128 19t-75.5 34.5t-50.5 44.5h-6v-78h-307zM422 483q0 -104 43 -178t135 -74t140 75t48 212q0 152 -50 228.5t-140 76.5q-176 0 -176 -284v-56z" />
<glyph unicode="c" horiz-adv-x="1087" d="M61 508q0 162 51.5 278.5t133.5 176t164 85t163.5 25.5t156.5 -25.5t124 -61.5t87 -76t55.5 -66.5t19.5 -34.5l-236 -160q-78 156 -200 156q-90 0 -151.5 -73t-61.5 -197q0 -150 68.5 -222.5t144.5 -72.5q129 0 221 151l225 -145q-37 -76 -159 -173.5t-287 -97.5 q-57 0 -119 12.5t-135.5 48.5t-130 92t-95.5 154.5t-39 225.5z" />
<glyph unicode="d" horiz-adv-x="1167" d="M61 528.5q0 272.5 123 415.5t308 143q90 0 138 -21.5t101 -72.5l6 4v437h307v-1434h-307v61h-4q-2 -2 -17.5 -16t-20.5 -17l-21 -14q-16 -10 -30 -14l-35 -10q-22 -6 -48 -8t-59 -2q-215 0 -328 138t-113 410.5zM375 537q0 -166 48 -235t136 -69q80 0 129 57.5t49 176.5 v88q0 262 -180 262q-84 0 -133 -71.5t-49 -208.5z" />
<glyph unicode="e" horiz-adv-x="1110" d="M61 508q0 129 33 231.5t83 164t117.5 101t132.5 55t132 15.5q133 0 232.5 -58.5t152.5 -153.5t79 -198.5t26 -213.5h-668q8 -106 68.5 -157.5t130.5 -51.5q27 0 48 3t40 13l30 17q12 7 29 27l23 27q6 7 23 32l22 32l249 -168q-150 -250 -475 -250q-74 0 -154.5 28 t-163.5 85t-136.5 167t-53.5 253zM383 670h324q0 57 -40 111.5t-122 54.5q-137 0 -162 -166z" />
<glyph unicode="f" horiz-adv-x="696" d="M0 819v238h188v145q0 111 58.5 171.5t210.5 60.5h239v-238h-123q-41 0 -59 -13.5t-18 -49.5v-76h200v-238h-200v-819h-308v819h-188z" />
<glyph unicode="g" horiz-adv-x="1132" d="M61 526q0 258 110 397.5t298 139.5q78 0 123 -19.5t102 -66.5h8v80h308v-1016q0 -176 -113 -293t-356 -117q-131 0 -224.5 32t-137.5 72t-68.5 101.5t-27.5 92t-3 71.5h301q0 -117 147 -117q106 0 140 39t34 137v76l-4 2q-43 -47 -93 -71.5t-140 -24.5q-176 0 -290 123.5 t-114 361.5zM373 532q0 -113 46 -173t126 -60q158 0 157 201v106q0 96 -48 149.5t-115 53.5q-84 0 -125 -63.5t-41 -213.5z" />
<glyph unicode="h" horiz-adv-x="1126" d="M123 0v1434h307v-451h6q8 10 26.5 27.5t82 45t135.5 27.5q188 0 261 -98t73 -311v-674h-307v612q0 98 -33 142.5t-109 44.5q-72 0 -103.5 -50.5t-31.5 -158.5v-590h-307z" />
<glyph unicode="i" horiz-adv-x="552" d="M123 0v1057h307v-1057h-307zM123 1135v299h307v-299h-307z" />
<glyph unicode="j" horiz-adv-x="552" d="M-14 -10h61q47 0 61.5 18.5t14.5 95.5v953h307v-1086q0 -160 -73.5 -209t-217.5 -49h-153v277zM123 1139v295h307v-295h-307z" />
<glyph unicode="k" horiz-adv-x="1144" d="M123 0v1434h307v-680h10l285 303h381l-348 -365l370 -692h-329l-258 469h-9l-102 -113v-356h-307z" />
<glyph unicode="l" horiz-adv-x="552" d="M123 0v1434h307v-1434h-307z" />
<glyph unicode="m" horiz-adv-x="1662" d="M123 0v1057h307v-82h8q100 86 246 86q176 0 252 -115q88 115 285 115q100 0 168.5 -32t101.5 -90t46 -120.5t13 -144.5v-674h-305v584q0 174 -125 174q-70 0 -98.5 -40t-28.5 -138v-580h-307v578q0 82 -26.5 131t-102.5 49q-70 0 -98.5 -45t-28.5 -148v-565h-307z" />
<glyph unicode="n" horiz-adv-x="1122" d="M123 0v1057h307v-74h8q92 82 240 82q94 0 160.5 -30.5t99.5 -69.5t50.5 -101.5t19.5 -97.5t2 -86v-680h-308v575q0 109 -25.5 160t-103.5 51q-90 0 -116.5 -62t-26.5 -187v-537h-307z" />
<glyph unicode="o" horiz-adv-x="1177" d="M61 518q0 248 138.5 403.5t394.5 155.5q236 0 379 -155.5t143 -393.5q0 -256 -154.5 -404.5t-367.5 -148.5q-242 0 -387.5 158t-145.5 385zM383 530q0 -129 50 -211.5t155 -82.5q100 0 153.5 80.5t53.5 214t-51.5 215t-155.5 81.5q-102 0 -153.5 -81t-51.5 -216z" />
<glyph unicode="p" horiz-adv-x="1163" d="M123 -293v1350h307v-62h6q94 86 256 86q195 0 302.5 -148.5t107.5 -387.5q0 -270 -121 -404.5t-309 -134.5q-74 0 -123 20.5t-115 77.5h-4v-397h-307zM430 489q0 -119 53.5 -175t128.5 -56q72 0 126.5 64.5t54.5 218.5q0 285 -181 284q-90 0 -136 -59t-46 -166v-111z" />
<glyph unicode="q" horiz-adv-x="1171" d="M61 549q0 242 116 384t308 142q158 0 250 -86h6v68h308v-1350h-308v404l-4 2q-63 -53 -115.5 -73t-129.5 -20q-190 0 -310.5 125t-120.5 404zM377 528q0 -250 188 -249q176 0 176 243v72q0 111 -49 170t-125 59q-190 0 -190 -295z" />
<glyph unicode="r" horiz-adv-x="792" d="M123 0v1057h307v-64h8q98 80 287 80h37v-317h-127q-111 0 -158 -31t-47 -125v-600h-307z" />
<glyph unicode="s" horiz-adv-x="1067" d="M31 170l198 184q53 -53 148.5 -92t163.5 -39q66 0 105.5 25.5t39.5 68.5q0 33 -38 48.5t-132 29t-149 27.5q-141 37 -211 107.5t-70 207.5q0 162 125 251t321 89q256 0 426 -188l-178 -172q-119 119 -252 119q-125 0 -125 -76q0 -16 17.5 -29.5t55.5 -23t66.5 -14.5 t82 -12t71.5 -11q158 -27 234 -113t76 -201q0 -188 -130.5 -287.5t-359.5 -99.5q-154 0 -269.5 48.5t-215.5 152.5z" />
<glyph unicode="t" horiz-adv-x="811" d="M20 819v238h216v377h307v-377h227v-238h-227v-395q0 -80 24.5 -107.5t100.5 -27.5l102 2v-291h-219q-182 0 -248.5 76t-66.5 231v512h-216z" />
<glyph unicode="u" horiz-adv-x="1132" d="M113 342v715h307v-635q0 -166 145 -166q63 0 100 47t37 137v617h308v-1057h-308v90h-4q-82 -102 -243 -102q-182 0 -262 101t-80 253z" />
<glyph unicode="v" horiz-adv-x="991" d="M0 1057h322l137 -441l39 -167h6l37 167l139 441h311l-340 -1057h-303z" />
<glyph unicode="w" horiz-adv-x="1529" d="M20 1057h312l121 -420l36 -205h5l43 205l112 420h254l117 -420l41 -207h2l43 207l115 420h288l-295 -1057h-282l-121 420l-35 166h-4l-31 -166l-104 -420h-295z" />
<glyph unicode="x" horiz-adv-x="1097" d="M20 0l351 561v8l-308 488h353l71 -127l56 -115h8q37 76 67 125l70 117h338l-299 -484v-8l350 -565h-340l-90 143l-52 89q-24 42 -34 63l-8 18h-8q-29 -66 -94 -166l-97 -147h-334z" />
<glyph unicode="y" horiz-adv-x="964" d="M0 1057h307l148 -443l34 -139h11l26 139l129 443h310l-365 -1147q-20 -59 -30.5 -84t-39 -59.5t-76.5 -47t-122 -12.5h-170v273h82q102 0 102 67z" />
<glyph unicode="z" horiz-adv-x="948" d="M41 0v244l453 544v15h-424v254h833v-232l-477 -563v-12h481v-250h-866z" />
<glyph unicode="{" horiz-adv-x="806" d="M61 631v176q61 0 122 44t61 136v524q0 127 89 199t199 72h213v-223h-47q-109 0 -108 -148v-453q0 -68 -31 -117.5t-79 -73.5t-83 -33t-67 -13v-4q31 -4 67.5 -15.5t83.5 -34t78 -67.5t31 -104v-476q0 -145 108 -145h47v-223h-213q-111 0 -199.5 71.5t-88.5 198.5v543 q0 82 -61 124t-122 42z" />
<glyph unicode="|" horiz-adv-x="501" d="M123 -41v1516h256v-1516h-256z" />
<glyph unicode="}" horiz-adv-x="806" d="M61 -125h48q109 0 108 145v476q0 59 31 104t78 67.5t83.5 34t67.5 15.5v4q-33 4 -67.5 13t-82.5 33t-79 74t-31 117v453q0 147 -108 148h-48v223h213q111 0 200 -72t89 -199v-524q0 -92 60.5 -136t121.5 -44v-176q-61 0 -121.5 -42t-60.5 -124v-543q0 -127 -89 -198.5 t-200 -71.5h-213v223z" />
<glyph unicode="~" horiz-adv-x="1228" d="M135 723q82 172 250 172q82 0 223 -64q162 -72 205 -71q39 0 74 24.5t52 47t50 71.5l80 -186q-35 -53 -63.5 -85t-77.5 -59.5t-109 -27.5q-94 0 -205 65q-113 70 -231 70q-100 0 -168 -143z" />
<glyph unicode="&#xa1;" horiz-adv-x="565" d="M123 735v322h317v-322h-317zM129 20l90 633h127l96 -633v-397h-313v397z" />
<glyph unicode="&#xa2;" horiz-adv-x="1198" d="M61 707q0 143 36 255.5t98.5 181t132 109.5t151.5 62v170h234v-156q76 -10 145.5 -42t115.5 -69.5t82 -75.5t52 -63.5t16 -34.5l-264 -178q-78 172 -223 172q-96 0 -165 -80.5t-69 -220.5q0 -166 76 -247.5t158 -81.5q137 0 250 167l250 -161q-14 -27 -45 -66t-83.5 -88 t-131 -88t-164.5 -51v-180h-234v194q-80 20 -147.5 58t-132 102.5t-101.5 170.5t-37 241z" />
<glyph unicode="&#xa3;" horiz-adv-x="1343" d="M61 193q8 10 24.5 24t78 45t135.5 41q84 70 84 148q0 59 -18 133h-261v143h203q-2 2 -16.5 31.5t-16.5 36t-14 33t-15 35.5t-12.5 34t-12.5 39l-8 37q-5 23 -6 43t-1 43q0 201 139 300t358 99q217 0 349.5 -141t132.5 -311l-289 -27q0 90 -51 156.5t-144 66.5 q-76 0 -118.5 -46t-42.5 -112q0 -61 59 -162.5t78 -154.5h262v-143h-240v-6q0 -74 -37.5 -165t-101.5 -139l49 -14l56 -16q20 -6 54 -11.5t64 -5.5q74 0 124 35t65 70l14 35l297 2q-6 -141 -127 -272.5t-332 -131.5q-98 0 -255.5 43t-202.5 43q-41 0 -81 -16.5t-59 -32.5 l-18 -16z" />
<glyph unicode="&#xa4;" horiz-adv-x="1329" d="M41 541l47 143h102v10q0 49 3 74h-152l47 143h123q31 147 105.5 260t170 175.5t192.5 93t189 30.5q242 0 400 -98l-117 -336q-104 135 -256 135q-109 0 -193 -66.5t-120 -193.5h530l-49 -143h-506v-49v-35h477l-47 -143h-405q37 -119 116.5 -190.5t198.5 -71.5 q176 0 283 145v-379q-176 -82 -285 -82q-279 0 -461 166t-229 412h-164z" />
<glyph unicode="&#xa5;" horiz-adv-x="1249" d="M20 1434h396l174 -293l39 -99h8l35 99l172 293h385l-428 -715v-53h248v-144h-248v-84h248v-143h-248v-295h-344v295h-258v143h258v84h-258v144h258v53z" />
<glyph unicode="&#xa6;" horiz-adv-x="501" d="M123 -41v655h256v-655h-256zM123 819v656h256v-656h-256z" />
<glyph unicode="&#xa7;" horiz-adv-x="1138" d="M20 625q0 215 216 293q-86 92 -86 202q0 160 125.5 253t291.5 93q184 0 304 -102t120 -285h-248q0 76 -47 125t-125 49q-57 0 -104 -35.5t-47 -93.5q2 -61 72.5 -112t170 -95.5t197.5 -95.5t167 -133t69 -186q0 -102 -56.5 -180t-152.5 -113q111 -82 110 -236 q0 -158 -130 -246.5t-298 -88.5q-203 0 -326.5 97t-123.5 290h248q10 -174 196 -175q66 0 108 35t42 99q2 53 -48.5 100t-127 81t-166.5 78t-168 91t-130.5 123t-52.5 168zM268 649q0 -68 66 -98l360 -199q43 -12 60 -12q39 0 66.5 37t27.5 74q0 78 -92 124l-330 187 q-43 23 -55 20q-41 -4 -72 -46t-31 -87z" />
<glyph unicode="&#xa8;" horiz-adv-x="804" d="M61 1178v235h269v-235h-269zM473 1178v235h270v-235h-270z" />
<glyph unicode="&#xa9;" horiz-adv-x="1622" d="M61 712.5q0 321.5 218.5 535.5t531.5 214t531.5 -214t218.5 -535.5t-218.5 -535.5t-531.5 -214t-531.5 214t-218.5 535.5zM227 713q0 -256 169 -426t415 -170t416 170t170 426q0 258 -170 428t-416 170t-415 -170t-169 -428zM391 702q0 125 40 220.5t103.5 146.5 t131 75.5t133.5 24.5q268 0 387 -225l-176 -104q-66 150 -195 149q-88 0 -145.5 -70.5t-57.5 -199.5q0 -109 53.5 -186.5t149.5 -77.5q147 0 205 155l174 -110q-47 -94 -145.5 -165t-233.5 -71q-195 0 -309.5 132t-114.5 306z" />
<glyph unicode="&#xaa;" horiz-adv-x="737" d="M61 989q0 127 123 178q41 16 125 31.5t129 32.5v4q0 8 -3 17.5t-21.5 22.5t-48.5 13q-74 0 -74 -65h-199q0 117 64.5 172t201.5 55q158 0 224.5 -55.5t66.5 -159.5v-344q0 -63 27 -113h-215l-12 33q-70 -43 -158 -43q-230 0 -230 221zM281 983q0 -51 61 -51 q47 0 71.5 32.5t24.5 63.5v53l-94 -30q-63 -21 -63 -68z" />
<glyph unicode="&#xab;" horiz-adv-x="927" d="M102 412v270l316 248v-242l-180 -141l180 -146v-241zM510 412v270l315 248v-242l-180 -141l180 -146v-241z" />
<glyph unicode="&#xac;" horiz-adv-x="1220" d="M102 582v274h1016v-645h-305v371h-711z" />
<glyph unicode="&#xad;" horiz-adv-x="722" d="M123 432v283h477v-283h-477z" />
<glyph unicode="&#xae;" horiz-adv-x="1622" d="M61 712.5q0 321.5 218.5 535.5t531.5 214t531.5 -214t218.5 -535.5t-218.5 -535.5t-531.5 -214t-531.5 214t-218.5 535.5zM252 712.5q0 -245.5 161.5 -408.5t397.5 -163t398.5 163t162.5 408.5t-162.5 409.5t-398.5 164t-397.5 -164t-161.5 -409.5zM479 311v828h383 q129 0 202 -69t73 -191q0 -184 -127 -258l164 -310h-222l-139 273h-141v-273h-193zM672 743h137q49 0 94 28t45 87q0 57 -31.5 89t-72.5 32h-172v-236z" />
<glyph unicode="&#xaf;" horiz-adv-x="747" d="M61 1217v169h625v-169h-625z" />
<glyph unicode="&#xb0;" horiz-adv-x="819" d="M104 1137q0 125 86 211t211 86t211 -86t86 -211t-86 -211t-211 -86t-211 86t-86 211zM236 1136.5q0 -71.5 50 -125t115.5 -53.5t115.5 53.5t50 125t-50 124t-115.5 52.5t-115.5 -52.5t-50 -124z" />
<glyph unicode="&#xb1;" horiz-adv-x="1222" d="M102 0v276h1018v-276h-1018zM102 778v277h369v379h281v-379h368v-277h-368v-377h-281v377h-369z" />
<glyph unicode="&#xb2;" horiz-adv-x="843" d="M61 1067v92q0 129 100.5 213t248.5 84q176 0 274 -82t98 -221q0 -176 -225 -315l-166 -105h377v-192h-696v182l252 195q129 100 172 147t43 100q0 43 -34 76t-83 33q-63 0 -101 -33t-38 -90l8 -107z" />
<glyph unicode="&#xb3;" horiz-adv-x="854" d="M61 799v65l224 13v-52q0 -55 35.5 -89t93.5 -34q47 0 92 24t45 79q0 111 -156 110h-65v175h69q53 0 93 21.5t40 70.5q0 45 -32.5 69.5t-81.5 24.5q-61 0 -88 -38t-31 -110l-227 9q0 129 85 224t267 95q152 0 248 -71.5t96 -182.5q0 -66 -36 -115t-83 -71q53 -23 98.5 -78 t45.5 -133q0 -135 -106.5 -211t-264.5 -76q-156 0 -258.5 73t-102.5 208z" />
<glyph unicode="&#xb4;" horiz-adv-x="630" d="M61 1159l189 275h315l-305 -275h-199z" />
<glyph unicode="&#xb5;" horiz-adv-x="1142" d="M123 -377v1434h307v-633q0 -86 41 -127t104.5 -41t100.5 47t37 137v617h307v-1057h-307v90h-4q-25 -39 -78 -69.5t-109 -30.5q-51 0 -92 28v-395h-307z" />
<glyph unicode="&#xb6;" horiz-adv-x="1269" d="M4 1067q0 367 481 367h588v-1766h-205v1604h-219v-1604h-205v1049q-211 0 -325.5 93t-114.5 257z" />
<glyph unicode="&#xb7;" horiz-adv-x="581" d="M123 545v346h336v-346h-336z" />
<glyph unicode="&#xb8;" horiz-adv-x="606" d="M61 -391l41 96q86 -37 170 -37q80 0 80 70q0 63 -80 63q-47 0 -82 -14l-40 49l118 168h99l-78 -108h2q27 10 69 10q76 0 130.5 -36t54.5 -106q0 -109 -66.5 -154.5t-169.5 -45.5q-129 0 -248 45z" />
<glyph unicode="&#xb9;" horiz-adv-x="565" d="M61 1128v168q74 0 124.5 39t68.5 99h188v-893h-235v573q0 10 -2 12t-15 2h-129z" />
<glyph unicode="&#xba;" horiz-adv-x="815" d="M61 1104q0 156 90.5 253t258.5 97q156 0 250 -97t94 -247q0 -160 -100.5 -253t-243.5 -93q-158 0 -253.5 99.5t-95.5 240.5zM287 1112q0 -74 29.5 -123t91.5 -49q59 0 89.5 47t30.5 125q0 74 -30.5 121t-90 47t-90 -46t-30.5 -122z" />
<glyph unicode="&#xbb;" horiz-adv-x="927" d="M102 160v241l181 146l-181 141v242l316 -248v-270zM510 160v241l180 146l-180 141v242l315 -248v-270z" />
<glyph unicode="&#xbc;" horiz-adv-x="1783" d="M61 1128v168q74 0 124.5 39t68.5 99h188v-893h-235v573q0 10 -2 12t-15 2h-129zM305 -43l830 1493h231l-823 -1493h-238zM971 201v153q35 35 210 263.5t199 275.5h209v-522h133v-170h-133v-201h-219v201h-399zM1194 371h176v229z" />
<glyph unicode="&#xbd;" horiz-adv-x="1955" d="M61 1128v168q74 0 124.5 39t68.5 99h188v-893h-235v573q0 10 -2 12t-15 2h-129zM326 -43l829 1493h231l-823 -1493h-237zM1174 526v92q0 129 100 213t248 84q176 0 274 -81.5t98 -221.5q0 -176 -225 -315l-166 -104h377v-193h-696v182l252 195q129 100 172 147t43 101 q0 43 -33 75.5t-84 32.5q-63 0 -101 -32.5t-38 -90.5l8 -106z" />
<glyph unicode="&#xbe;" horiz-adv-x="2086" d="M61 799v65l224 13v-52q0 -55 35.5 -89t93.5 -34q47 0 92 24t45 79q0 111 -156 110h-65v175h69q53 0 93 21.5t40 70.5q0 45 -32.5 69.5t-81.5 24.5q-61 0 -88 -38t-31 -110l-227 9q0 129 85 224t267 95q152 0 248 -71.5t96 -182.5q0 -66 -36 -115t-83 -71q53 -23 98.5 -78 t45.5 -133q0 -135 -106.5 -211t-264.5 -76q-156 0 -258.5 73t-102.5 208zM569 -43l830 1493h231l-823 -1493h-238zM1274 201v153q35 35 210 263.5t199 275.5h209v-522h133v-170h-133v-201h-219v201h-399zM1497 371h176v229z" />
<glyph unicode="&#xbf;" horiz-adv-x="1118" d="M61 -4q0 98 31 171t76 109.5t98 70.5t98.5 57.5t76 65.5t30.5 97v86h277v-129q0 -88 -38 -154.5t-91.5 -105.5t-107.5 -73.5t-92 -78.5t-38 -102q0 -72 59.5 -112.5t126.5 -40.5q70 0 116 25.5t65.5 72.5t26.5 90t7 102l275 -120q-2 -41 -12.5 -86t-44 -108.5t-84 -112 t-144.5 -83t-215 -34.5q-129 0 -229.5 36.5t-155.5 97t-83 126t-28 133.5zM453 733v324h321v-324h-321z" />
<glyph unicode="&#xc0;" d="M0 0l492 1434h313l522 -1434h-358l-64 168h-502l-63 -168h-340zM229 1810h324l184 -274h-209zM492 465h309l-88 252q-25 68 -42.5 132t-23.5 95l-4 31h-8q-25 -115 -68 -258z" />
<glyph unicode="&#xc1;" d="M0 0l492 1434h313l522 -1434h-358l-64 168h-502l-63 -168h-340zM492 465h309l-88 252q-25 68 -42.5 132t-23.5 95l-4 31h-8q-25 -115 -68 -258zM537 1536l188 274h315l-305 -274h-198z" />
<glyph unicode="&#xc2;" d="M0 0l492 1434h313l522 -1434h-358l-64 168h-502l-63 -168h-340zM307 1536l221 274h260l222 -274h-236l-125 111l-127 -111h-215zM492 465h309l-88 252q-25 68 -42.5 132t-23.5 95l-4 31h-8q-25 -115 -68 -258z" />
<glyph unicode="&#xc3;" d="M0 0l492 1434h313l522 -1434h-358l-64 168h-502l-63 -168h-340zM291 1552q39 246 244 246q49 0 161 -49q66 -29 107 -29q72 0 84 82h139q-33 -250 -225 -250q-53 0 -155.5 37t-149.5 37q-39 0 -55.5 -16.5t-28.5 -57.5h-121zM492 465h309l-88 252q-25 68 -42.5 132 t-23.5 95l-4 31h-8q-25 -115 -68 -258z" />
<glyph unicode="&#xc4;" d="M0 0l492 1434h313l522 -1434h-358l-64 168h-502l-63 -168h-340zM317 1554v236h269v-236h-269zM492 465h309l-88 252q-25 68 -42.5 132t-23.5 95l-4 31h-8q-25 -115 -68 -258zM729 1554v236h270v-236h-270z" />
<glyph unicode="&#xc5;" d="M0 0l492 1434h313l522 -1434h-358l-64 168h-502l-63 -168h-340zM395 1699.5q0 102.5 71 173.5t173 71t175 -71t73 -173.5t-73 -174t-175 -71.5t-173 71.5t-71 174zM492 465h309l-88 252q-25 68 -42.5 132t-23.5 95l-4 31h-8q-25 -115 -68 -258zM526 1700q0 -53 31 -90 t82 -37q53 0 85 37t32 90t-32 89t-85 36q-51 0 -82 -36t-31 -89z" />
<glyph unicode="&#xc6;" horiz-adv-x="1951" d="M0 0l737 1434h1129v-293h-727l47 -267h663v-278h-618l51 -307h629v-289h-932l-29 168h-508l-92 -168h-350zM584 465h315l-70 412l-8 98h-4l-39 -98z" />
<glyph unicode="&#xc7;" horiz-adv-x="1458" d="M61 694q0 168 45.5 304.5t116 222.5t162.5 144t180 81.5t174 23.5q446 0 645 -374l-294 -174q-109 250 -324 249q-145 0 -241.5 -117.5t-96.5 -334.5q0 -180 89 -310t251 -130q111 0 202 65.5t138 194.5l289 -183q-70 -145 -216.5 -257.5t-344.5 -131.5l-50 -71h2 q27 10 70 10q76 0 130 -36t54 -106q0 -109 -66.5 -154.5t-168.5 -45.5q-129 0 -248 45l41 96q86 -37 170 -37q80 0 80 70q0 63 -80 63q-47 0 -82 -14l-41 49l90 129q-309 10 -492.5 227t-183.5 502z" />
<glyph unicode="&#xc8;" horiz-adv-x="1249" d="M123 0v1434h1022v-299h-670v-256h637v-295h-637v-277h696v-307h-1048zM276 1810h324l184 -274h-209z" />
<glyph unicode="&#xc9;" horiz-adv-x="1249" d="M123 0v1434h1022v-299h-670v-256h637v-295h-637v-277h696v-307h-1048zM514 1536l188 274h316l-305 -274h-199z" />
<glyph unicode="&#xca;" horiz-adv-x="1249" d="M123 0v1434h1022v-299h-670v-256h637v-295h-637v-277h696v-307h-1048zM303 1536l221 274h260l222 -274h-236l-125 111l-127 -111h-215z" />
<glyph unicode="&#xcb;" horiz-adv-x="1249" d="M123 0v1434h1022v-299h-670v-256h637v-295h-637v-277h696v-307h-1048zM313 1554v236h269v-236h-269zM725 1554v236h270v-236h-270z" />
<glyph unicode="&#xcc;" horiz-adv-x="598" d="M-47 1810h323l185 -274h-209zM123 0v1434h352v-1434h-352z" />
<glyph unicode="&#xcd;" horiz-adv-x="598" d="M123 0v1434h352v-1434h-352zM143 1536l189 274h315l-305 -274h-199z" />
<glyph unicode="&#xce;" horiz-adv-x="598" d="M-53 1536l221 274h260l221 -274h-235l-125 111l-127 -111h-215zM123 0v1434h352v-1434h-352z" />
<glyph unicode="&#xcf;" horiz-adv-x="598" d="M-43 1554v236h268v-236h-268zM123 0v1434h352v-1434h-352zM369 1554v236h270v-236h-270z" />
<glyph unicode="&#xd0;" horiz-adv-x="1458" d="M31 604v242h123v588h553q307 0 498.5 -195t191.5 -504q0 -365 -194.5 -550t-512.5 -185h-536v604h-123zM498 297h170q78 0 135 13.5t118.5 53t94.5 131t33 228.5q0 193 -102.5 301.5t-303.5 108.5h-145v-287h260v-242h-260v-307z" />
<glyph unicode="&#xd1;" horiz-adv-x="1402" d="M123 0v1434h332l235 -377l126 -211q65 -113 97 -178l35 -64h8q-4 166 -4 453v377h328v-1434h-287l-297 465l-126 206l-87 148l-26 49h-8q6 -152 6 -387v-481h-332zM334 1552q39 246 244 246q49 0 161 -49q63 -29 107 -29q72 0 84 82h139q-33 -250 -225 -250 q-53 0 -155.5 37t-149.5 37q-39 0 -55.5 -16.5t-28.5 -57.5h-121z" />
<glyph unicode="&#xd2;" horiz-adv-x="1533" d="M61 713q0 162 46.5 294t120 217t169 142t188.5 80.5t185 23.5q84 0 172 -21.5t185.5 -75.5t172 -136t124 -218t49.5 -304q0 -195 -63.5 -345.5t-168 -235.5t-224.5 -128t-247 -43t-249 47t-226.5 135t-169 237t-64.5 331zM393 1810h324l184 -274h-209zM428 723 q0 -205 87 -322.5t255 -117.5q150 0 246 116.5t96 323.5q0 195 -92 317.5t-250 122.5q-150 0 -246 -119.5t-96 -320.5z" />
<glyph unicode="&#xd3;" horiz-adv-x="1533" d="M61 713q0 162 46.5 294t120 217t169 142t188.5 80.5t185 23.5q84 0 172 -21.5t185.5 -75.5t172 -136t124 -218t49.5 -304q0 -195 -63.5 -345.5t-168 -235.5t-224.5 -128t-247 -43t-249 47t-226.5 135t-169 237t-64.5 331zM428 723q0 -205 87 -322.5t255 -117.5 q150 0 246 116.5t96 323.5q0 195 -92 317.5t-250 122.5q-150 0 -246 -119.5t-96 -320.5zM645 1536l189 274h315l-305 -274h-199z" />
<glyph unicode="&#xd4;" horiz-adv-x="1533" d="M61 713q0 162 46.5 294t120 217t169 142t188.5 80.5t185 23.5q84 0 172 -21.5t185.5 -75.5t172 -136t124 -218t49.5 -304q0 -195 -63.5 -345.5t-168 -235.5t-224.5 -128t-247 -43t-249 47t-226.5 135t-169 237t-64.5 331zM416 1536l221 274h260l221 -274h-235l-125 111 l-127 -111h-215zM428 723q0 -205 87 -322.5t255 -117.5q150 0 246 116.5t96 323.5q0 195 -92 317.5t-250 122.5q-150 0 -246 -119.5t-96 -320.5z" />
<glyph unicode="&#xd5;" horiz-adv-x="1533" d="M61 713q0 162 46.5 294t120 217t169 142t188.5 80.5t185 23.5q84 0 172 -21.5t185.5 -75.5t172 -136t124 -218t49.5 -304q0 -195 -63.5 -345.5t-168 -235.5t-224.5 -128t-247 -43t-249 47t-226.5 135t-169 237t-64.5 331zM399 1552q39 246 244 246q49 0 162 -49 q63 -29 106 -29q72 0 84 82h140q-33 -250 -226 -250q-53 0 -155.5 37t-149.5 37q-39 0 -55.5 -16.5t-28.5 -57.5h-121zM428 723q0 -205 87 -322.5t255 -117.5q150 0 246 116.5t96 323.5q0 195 -92 317.5t-250 122.5q-150 0 -246 -119.5t-96 -320.5z" />
<glyph unicode="&#xd6;" horiz-adv-x="1533" d="M61 713q0 162 46.5 294t120 217t169 142t188.5 80.5t185 23.5q84 0 172 -21.5t185.5 -75.5t172 -136t124 -218t49.5 -304q0 -195 -63.5 -345.5t-168 -235.5t-224.5 -128t-247 -43t-249 47t-226.5 135t-169 237t-64.5 331zM426 1554v236h268v-236h-268zM428 723 q0 -205 87 -322.5t255 -117.5q150 0 246 116.5t96 323.5q0 195 -92 317.5t-250 122.5q-150 0 -246 -119.5t-96 -320.5zM838 1554v236h270v-236h-270z" />
<glyph unicode="&#xd7;" horiz-adv-x="1220" d="M117 422l301 297l-297 299l194 194l295 -299l299 299l195 -194l-301 -299l301 -297l-195 -195l-299 299l-299 -299z" />
<glyph unicode="&#xd8;" horiz-adv-x="1533" d="M61 57l156 172q-156 197 -156 484q0 162 46.5 294t120 217t169 142t188.5 80.5t185 23.5q238 0 434 -147l135 147l134 -112l-146 -160q145 -195 146 -483q0 -195 -63.5 -345.5t-168 -235.5t-224.5 -128t-247 -43q-236 0 -428 143l-147 -161zM428 723q0 -131 33 -223 l524 579q-88 84 -215 84q-150 0 -246 -119.5t-96 -320.5zM561 350q84 -68 209 -67q150 0 246 116.5t96 323.5q0 113 -31 201z" />
<glyph unicode="&#xd9;" horiz-adv-x="1396" d="M102 461v973h359v-859q0 -160 52 -228t177 -68q145 0 196.5 64.5t51.5 229.5v861h356v-963q0 -72 -18.5 -140.5t-62.5 -136t-110.5 -117.5t-172 -82t-238.5 -32q-72 0 -145.5 13.5t-155.5 50t-144.5 90t-103.5 143.5t-41 201zM303 1810h324l184 -274h-209z" />
<glyph unicode="&#xda;" horiz-adv-x="1396" d="M102 461v973h359v-859q0 -160 52 -228t177 -68q145 0 196.5 64.5t51.5 229.5v861h356v-963q0 -72 -18.5 -140.5t-62.5 -136t-110.5 -117.5t-172 -82t-238.5 -32q-72 0 -145.5 13.5t-155.5 50t-144.5 90t-103.5 143.5t-41 201zM588 1536l188 274h316l-306 -274h-198z" />
<glyph unicode="&#xdb;" horiz-adv-x="1396" d="M102 461v973h359v-859q0 -160 52 -228t177 -68q145 0 196.5 64.5t51.5 229.5v861h356v-963q0 -72 -18.5 -140.5t-62.5 -136t-110.5 -117.5t-172 -82t-238.5 -32q-72 0 -145.5 13.5t-155.5 50t-144.5 90t-103.5 143.5t-41 201zM346 1536l221 274h260l222 -274h-236 l-125 111l-127 -111h-215z" />
<glyph unicode="&#xdc;" horiz-adv-x="1396" d="M102 461v973h359v-859q0 -160 52 -228t177 -68q145 0 196.5 64.5t51.5 229.5v861h356v-963q0 -72 -18.5 -140.5t-62.5 -136t-110.5 -117.5t-172 -82t-238.5 -32q-72 0 -145.5 13.5t-155.5 50t-144.5 90t-103.5 143.5t-41 201zM356 1554v236h269v-236h-269zM768 1554v236 h270v-236h-270z" />
<glyph unicode="&#xdd;" horiz-adv-x="1331" d="M0 1434h395l80 -134q147 -246 195 -360h8q47 123 188 360l80 134h385l-487 -813v-621h-348v621zM555 1536l188 274h316l-305 -274h-199z" />
<glyph unicode="&#xde;" horiz-adv-x="1251" d="M123 0v1434h336v-222h250q135 0 233 -39.5t149.5 -110.5t75 -149.5t23.5 -173.5q0 -229 -116 -372.5t-365 -143.5h-250v-223h-336zM459 504h178q242 0 242 235q0 205 -242 205h-178v-440z" />
<glyph unicode="&#xdf;" horiz-adv-x="1239" d="M123 0v1067q0 168 127 285.5t344 117.5q229 0 370.5 -99t141.5 -290q0 -106 -60.5 -188t-142.5 -102q94 -16 184.5 -113.5t90.5 -243.5q0 -246 -149.5 -358.5t-393.5 -112.5q-37 0 -103 10v256q16 -8 103 -8q94 0 153.5 57.5t59.5 155.5q0 109 -64.5 161t-148.5 52h-103 v260h74q80 0 128 47t48 127q0 63 -38.5 117.5t-137.5 54.5q-68 0 -122 -48t-54 -130v-1075h-307z" />
<glyph unicode="&#xe0;" horiz-adv-x="1052" d="M61 330q0 143 97.5 215.5t275.5 105.5l215 41v41q0 16 -5 35.5t-37 45.5t-87 26q-123 0 -133 -121h-281q4 180 99.5 265t300.5 85q242 0 342 -86t100 -250v-563q0 -111 33 -170h-299l-25 63q-76 -49 -124 -64t-130 -15q-162 0 -252 86t-90 260zM133 1434h324l184 -275 h-209zM371 319q0 -41 26.5 -70.5t85.5 -29.5q82 0 124 60.5t42 113.5v113q-90 -23 -170 -55q-108 -46 -108 -132z" />
<glyph unicode="&#xe1;" horiz-adv-x="1052" d="M61 330q0 143 97.5 215.5t275.5 105.5l215 41v41q0 16 -5 35.5t-37 45.5t-87 26q-123 0 -133 -121h-281q4 180 99.5 265t300.5 85q242 0 342 -86t100 -250v-563q0 -111 33 -170h-299l-25 63q-76 -49 -124 -64t-130 -15q-162 0 -252 86t-90 260zM371 319q0 -41 26.5 -70.5 t85.5 -29.5q82 0 124 60.5t42 113.5v113q-90 -23 -170 -55q-108 -46 -108 -132zM403 1159l189 275h315l-305 -275h-199z" />
<glyph unicode="&#xe2;" horiz-adv-x="1052" d="M61 330q0 143 97.5 215.5t275.5 105.5l215 41v41q0 16 -5 35.5t-37 45.5t-87 26q-123 0 -133 -121h-281q4 180 99.5 265t300.5 85q242 0 342 -86t100 -250v-563q0 -111 33 -170h-299l-25 63q-76 -49 -124 -64t-130 -15q-162 0 -252 86t-90 260zM190 1159l222 275h260 l221 -275h-236l-125 111l-126 -111h-216zM371 319q0 -41 26.5 -70.5t85.5 -29.5q82 0 124 60.5t42 113.5v113q-90 -23 -170 -55q-108 -46 -108 -132z" />
<glyph unicode="&#xe3;" horiz-adv-x="1052" d="M61 330q0 143 97.5 215.5t275.5 105.5l215 41v41q0 16 -5 35.5t-37 45.5t-87 26q-123 0 -133 -121h-281q4 180 99.5 265t300.5 85q242 0 342 -86t100 -250v-563q0 -111 33 -170h-299l-25 63q-76 -49 -124 -64t-130 -15q-162 0 -252 86t-90 260zM174 1176q39 246 244 245 q49 0 162 -49q63 -29 106 -29q72 0 84 82h139q-33 -250 -225 -249q-53 0 -155.5 36.5t-149.5 36.5q-39 0 -55.5 -16t-28.5 -57h-121zM371 319q0 -41 26.5 -70.5t85.5 -29.5q82 0 124 60.5t42 113.5v113q-90 -23 -170 -55q-108 -46 -108 -132z" />
<glyph unicode="&#xe4;" horiz-adv-x="1052" d="M61 330q0 143 97.5 215.5t275.5 105.5l215 41v41q0 16 -5 35.5t-37 45.5t-87 26q-123 0 -133 -121h-281q4 180 99.5 265t300.5 85q242 0 342 -86t100 -250v-563q0 -111 33 -170h-299l-25 63q-76 -49 -124 -64t-130 -15q-162 0 -252 86t-90 260zM201 1178v235h268v-235 h-268zM371 319q0 -41 26.5 -70.5t85.5 -29.5q82 0 124 60.5t42 113.5v113q-90 -23 -170 -55q-108 -46 -108 -132zM612 1178v235h271v-235h-271z" />
<glyph unicode="&#xe5;" horiz-adv-x="1052" d="M61 330q0 143 97.5 215.5t275.5 105.5l215 41v41q0 16 -5 35.5t-37 45.5t-87 26q-123 0 -133 -121h-281q4 180 99.5 265t300.5 85q242 0 342 -86t100 -250v-563q0 -111 33 -170h-299l-25 63q-76 -49 -124 -64t-130 -15q-162 0 -252 86t-90 260zM295 1343.5 q0 102.5 70.5 173t173 70.5t175 -70.5t72.5 -173t-72.5 -174t-175 -71.5t-173 71.5t-70.5 174zM371 319q0 -41 26.5 -70.5t85.5 -29.5q82 0 124 60.5t42 113.5v113q-90 -23 -170 -55q-108 -46 -108 -132zM426 1343.5q0 -53.5 30.5 -90t82.5 -36.5q53 0 84.5 36.5t31.5 90 t-31.5 89t-84.5 35.5q-51 0 -82 -35.5t-31 -89z" />
<glyph unicode="&#xe6;" horiz-adv-x="1697" d="M61 330q0 190 181 276l38.5 16.5t36 12.5t42.5 10l42 9q14 3 51 9.5t56 10.5l141 39v20q0 16 -5 35.5t-37 45.5t-87 26q-133 0 -133 -142h-281q0 199 95.5 285t304.5 86q231 0 342 -88q125 94 299 94q133 0 232.5 -58.5t152.5 -153.5t78.5 -198.5t25.5 -213.5h-667 q8 -106 68.5 -157.5t129.5 -51.5q27 0 48.5 3t39.5 13l31 17q12 7 29 27l22 27q6 7 24 32l21 32l250 -168q-150 -250 -475 -250q-84 0 -182 36t-174 110q-184 -137 -398 -137q-162 0 -252 86t-90 260zM371 319q0 -41 26.5 -70.5t85.5 -29.5q82 0 124 60.5t42 113.5v113 q-168 -55 -170 -55q-108 -46 -108 -132zM971 670h323q0 57 -40 111.5t-121 54.5q-137 0 -162 -166z" />
<glyph unicode="&#xe7;" horiz-adv-x="1087" d="M61 508q0 162 51.5 278.5t133.5 176t164 85t163.5 25.5t156.5 -25.5t124 -61.5t87 -76t55.5 -66.5t19.5 -34.5l-236 -160q-61 115 -135 144q-31 12 -65 12q-90 0 -151.5 -73t-61.5 -197q0 -150 68.5 -222.5t144.5 -72.5q129 0 221 151l225 -145q-12 -25 -42 -60.5 t-77 -81t-119.5 -80t-150.5 -44.5l-59 -84h2q27 10 69 10q76 0 130.5 -36t54.5 -106q0 -109 -67 -154.5t-169 -45.5q-129 0 -248 45l41 96q86 -37 170 -37q80 0 80 70q0 63 -80 63q-47 0 -82 -14l-41 49l101 141q-59 4 -118 20.5t-126.5 54.5t-116.5 94.5t-83 150.5t-34 211 z" />
<glyph unicode="&#xe8;" horiz-adv-x="1110" d="M61 508q0 129 33 231.5t83 164t117.5 101t132.5 55t132 15.5q133 0 232.5 -58.5t152.5 -153.5t79 -198.5t26 -213.5h-668q8 -106 68.5 -157.5t130.5 -51.5q27 0 48 3t40 13l30 17q12 7 29 27l23 27q6 7 23 32l22 32l249 -168q-150 -250 -475 -250q-74 0 -154.5 28 t-163.5 85t-136.5 167t-53.5 253zM166 1434h323l185 -275h-209zM383 670h324q0 57 -40 111.5t-122 54.5q-137 0 -162 -166z" />
<glyph unicode="&#xe9;" horiz-adv-x="1110" d="M61 508q0 129 33 231.5t83 164t117.5 101t132.5 55t132 15.5q133 0 232.5 -58.5t152.5 -153.5t79 -198.5t26 -213.5h-668q8 -106 68.5 -157.5t130.5 -51.5q27 0 48 3t40 13l30 17q12 7 29 27l23 27q6 7 23 32l22 32l249 -168q-150 -250 -475 -250q-74 0 -154.5 28 t-163.5 85t-136.5 167t-53.5 253zM383 670h324q0 57 -40 111.5t-122 54.5q-137 0 -162 -166zM455 1159l188 275h315l-305 -275h-198z" />
<glyph unicode="&#xea;" horiz-adv-x="1110" d="M61 508q0 129 33 231.5t83 164t117.5 101t132.5 55t132 15.5q133 0 232.5 -58.5t152.5 -153.5t79 -198.5t26 -213.5h-668q8 -106 68.5 -157.5t130.5 -51.5q27 0 48 3t40 13l30 17q12 7 29 27l23 27q6 7 23 32l22 32l249 -168q-150 -250 -475 -250q-74 0 -154.5 28 t-163.5 85t-136.5 167t-53.5 253zM203 1159l221 275h260l221 -275h-235l-125 111l-127 -111h-215zM383 670h324q0 57 -40 111.5t-122 54.5q-137 0 -162 -166z" />
<glyph unicode="&#xeb;" horiz-adv-x="1110" d="M61 508q0 129 33 231.5t83 164t117.5 101t132.5 55t132 15.5q133 0 232.5 -58.5t152.5 -153.5t79 -198.5t26 -213.5h-668q8 -106 68.5 -157.5t130.5 -51.5q27 0 48 3t40 13l30 17q12 7 29 27l23 27q6 7 23 32l22 32l249 -168q-150 -250 -475 -250q-74 0 -154.5 28 t-163.5 85t-136.5 167t-53.5 253zM213 1178v235h268v-235h-268zM383 670h324q0 57 -40 111.5t-122 54.5q-137 0 -162 -166zM625 1178v235h270v-235h-270z" />
<glyph unicode="&#xec;" horiz-adv-x="552" d="M-121 1434h324l184 -275h-209zM123 0v1057h307v-1057h-307z" />
<glyph unicode="&#xed;" horiz-adv-x="555" d="M123 0v1057h307v-1057h-307zM168 1159l188 275h316l-305 -275h-199z" />
<glyph unicode="&#xee;" horiz-adv-x="555" d="M-74 1159l221 275h261l221 -275h-236l-125 111l-127 -111h-215zM123 0v1057h307v-1057h-307z" />
<glyph unicode="&#xef;" horiz-adv-x="555" d="M-63 1178v235h268v-235h-268zM123 0v1057h307v-1057h-307zM348 1178v235h270v-235h-270z" />
<glyph unicode="&#xf0;" horiz-adv-x="1163" d="M61 508q0 238 134.5 374t341.5 136q82 0 161 -31q-43 100 -120 189l-146 -72l-129 121l146 69q-82 63 -158 101l180 143q125 -72 207 -131l215 104l129 -120l-211 -103q291 -295 291 -735q0 -274 -146.5 -426t-361.5 -152q-242 0 -387.5 154t-145.5 379zM383 520 q0 -129 49 -206.5t156 -77.5q102 0 154.5 76.5t52.5 207.5t-51.5 209t-155.5 78q-102 0 -153.5 -77t-51.5 -210z" />
<glyph unicode="&#xf1;" horiz-adv-x="1122" d="M123 0v1057h307v-74h8q92 82 240 82q94 0 160.5 -30.5t99.5 -69.5t50.5 -101.5t19.5 -97.5t2 -86v-680h-308v575q0 109 -25.5 160t-103.5 51q-90 0 -116.5 -62t-26.5 -187v-537h-307zM193 1176q39 246 243 245q49 0 162 -49q66 -29 107 -29q72 0 83 82h140 q-33 -250 -226 -249q-53 0 -155.5 36.5t-149.5 36.5q-39 0 -55 -16t-29 -57h-120z" />
<glyph unicode="&#xf2;" horiz-adv-x="1177" d="M61 518q0 248 138.5 403.5t394.5 155.5q236 0 379 -155.5t143 -393.5q0 -256 -154.5 -404.5t-367.5 -148.5q-242 0 -387.5 158t-145.5 385zM193 1434h323l184 -275h-208zM383 530q0 -129 50 -211.5t155 -82.5q100 0 153.5 80.5t53.5 214t-51.5 215t-155.5 81.5 q-102 0 -153.5 -81t-51.5 -216z" />
<glyph unicode="&#xf3;" horiz-adv-x="1177" d="M61 518q0 248 138.5 403.5t394.5 155.5q236 0 379 -155.5t143 -393.5q0 -256 -154.5 -404.5t-367.5 -148.5q-242 0 -387.5 158t-145.5 385zM383 530q0 -129 50 -211.5t155 -82.5q100 0 153.5 80.5t53.5 214t-51.5 215t-155.5 81.5q-102 0 -153.5 -81t-51.5 -216z M481 1159l189 275h315l-305 -275h-199z" />
<glyph unicode="&#xf4;" horiz-adv-x="1177" d="M61 518q0 248 138.5 403.5t394.5 155.5q236 0 379 -155.5t143 -393.5q0 -256 -154.5 -404.5t-367.5 -148.5q-242 0 -387.5 158t-145.5 385zM238 1159l221 275h260l221 -275h-235l-125 111l-127 -111h-215zM383 530q0 -129 50 -211.5t155 -82.5q100 0 153.5 80.5t53.5 214 t-51.5 215t-155.5 81.5q-102 0 -153.5 -81t-51.5 -216z" />
<glyph unicode="&#xf5;" horiz-adv-x="1177" d="M61 518q0 248 138.5 403.5t394.5 155.5q236 0 379 -155.5t143 -393.5q0 -256 -154.5 -404.5t-367.5 -148.5q-242 0 -387.5 158t-145.5 385zM221 1176q39 246 244 245q49 0 162 -49q66 -29 106 -29q72 0 84 82h139q-33 -250 -225 -249q-53 0 -155.5 36.5t-149.5 36.5 q-39 0 -55.5 -16t-28.5 -57h-121zM383 530q0 -129 50 -211.5t155 -82.5q100 0 153.5 80.5t53.5 214t-51.5 215t-155.5 81.5q-102 0 -153.5 -81t-51.5 -216z" />
<glyph unicode="&#xf6;" horiz-adv-x="1177" d="M61 518q0 248 138.5 403.5t394.5 155.5q236 0 379 -155.5t143 -393.5q0 -256 -154.5 -404.5t-367.5 -148.5q-242 0 -387.5 158t-145.5 385zM248 1178v235h268v-235h-268zM383 530q0 -129 50 -211.5t155 -82.5q100 0 153.5 80.5t53.5 214t-51.5 215t-155.5 81.5 q-102 0 -153.5 -81t-51.5 -216zM659 1178v235h271v-235h-271z" />
<glyph unicode="&#xf7;" horiz-adv-x="1222" d="M102 580v276h1018v-276h-1018zM440 299q0 70 51.5 119t119 49t117.5 -49t50 -119q0 -61 -50 -114.5t-116 -53.5q-70 0 -121 50t-51 118zM440 1133q0 72 50.5 121t119.5 49q68 0 118 -49.5t50 -120.5q0 -66 -50 -118t-116 -52q-70 0 -121 50t-51 120z" />
<glyph unicode="&#xf8;" horiz-adv-x="1177" d="M59 49l115 123q-113 147 -113 346q0 248 138.5 403.5t394.5 155.5q184 0 321 -104l97 104l100 -86l-104 -112q109 -147 108 -351q0 -256 -154.5 -404.5t-367.5 -148.5q-190 0 -328 105l-106 -117zM383 530q0 -63 12 -118l330 356q-53 59 -137 59q-102 0 -153.5 -81 t-51.5 -216zM459 287q47 -51 129 -51q100 0 153.5 80.5t53.5 213.5q0 51 -11 107z" />
<glyph unicode="&#xf9;" horiz-adv-x="1132" d="M113 342v715h307v-635q0 -166 145 -166q63 0 100 47t37 137v617h308v-1057h-308v90h-4q-82 -102 -243 -102q-182 0 -262 101t-80 253zM162 1434h323l185 -275h-209z" />
<glyph unicode="&#xfa;" horiz-adv-x="1132" d="M113 342v715h307v-635q0 -166 145 -166q63 0 100 47t37 137v617h308v-1057h-308v90h-4q-82 -102 -243 -102q-182 0 -262 101t-80 253zM463 1159l188 275h316l-305 -275h-199z" />
<glyph unicode="&#xfb;" horiz-adv-x="1132" d="M113 342v715h307v-635q0 -166 145 -166q63 0 100 47t37 137v617h308v-1057h-308v90h-4q-82 -102 -243 -102q-182 0 -262 101t-80 253zM209 1159l221 275h260l221 -275h-235l-125 111l-127 -111h-215z" />
<glyph unicode="&#xfc;" horiz-adv-x="1132" d="M113 342v715h307v-635q0 -166 145 -166q63 0 100 47t37 137v617h308v-1057h-308v90h-4q-82 -102 -243 -102q-182 0 -262 101t-80 253zM219 1178v235h268v-235h-268zM631 1178v235h270v-235h-270z" />
<glyph unicode="&#xfd;" horiz-adv-x="964" d="M0 1057h307l148 -443l34 -139h11l26 139l129 443h310l-365 -1147q-20 -59 -30.5 -84t-39 -59.5t-76.5 -47t-122 -12.5h-170v273h82q102 0 102 67zM379 1159l188 275h316l-305 -275h-199z" />
<glyph unicode="&#xfe;" horiz-adv-x="1150" d="M123 -293v1727h295v-439h6q94 86 256 86q195 0 302.5 -148.5t107.5 -387.5q0 -270 -121 -404.5t-310 -134.5q-74 0 -123 20.5t-114 77.5h-4v-397h-295zM418 489q0 -119 53 -175t129 -56q72 0 126 64.5t54 218.5q0 285 -180 284q-90 0 -136 -59t-46 -166v-111z" />
<glyph unicode="&#xff;" horiz-adv-x="964" d="M0 1057h307l148 -443l34 -139h11l26 139l129 443h310l-365 -1147q-20 -59 -30.5 -84t-39 -59.5t-76.5 -47t-122 -12.5h-170v273h82q102 0 102 67zM141 1178v235h269v-235h-269zM553 1178v235h270v-235h-270z" />
<glyph unicode="&#x152;" horiz-adv-x="2080" d="M61 713q0 162 46.5 294t120 217t169 142t188.5 80.5t185 23.5q90 0 207 -18t219 -18h797v-293h-680v-267h647v-278h-647v-307h706v-289h-823q-96 0 -218 -18.5t-208 -18.5q-127 0 -249 47t-226.5 135t-169 237t-64.5 331zM428 723q0 -207 88 -329t254 -122q135 0 201 27 v844q-70 35 -201 35q-147 0 -244.5 -126t-97.5 -329z" />
<glyph unicode="&#x153;" horiz-adv-x="1843" d="M61 518q0 248 138.5 403.5t394.5 155.5q215 0 354 -133q137 131 344 131q133 0 232.5 -58.5t153 -153.5t79 -198.5t25.5 -213.5h-668q8 -106 68.5 -157.5t130.5 -51.5q27 0 48 3t40 13l31 17q12 7 28 27l23 27q6 7 23 32l22 32l250 -168q-150 -250 -475 -250 q-82 0 -178.5 35t-172.5 105q-145 -139 -358 -140q-242 0 -387.5 158t-145.5 385zM383 530q0 -129 50 -211.5t155 -82.5q100 0 153.5 80.5t53.5 214t-51.5 215t-155.5 81.5q-102 0 -153.5 -81t-51.5 -216zM1116 670h324q0 57 -40 111.5t-122 54.5q-137 0 -162 -166z" />
<glyph unicode="&#x178;" horiz-adv-x="1331" d="M0 1434h395l80 -134q147 -246 195 -360h8q47 123 188 360l80 134h385l-487 -813v-621h-348v621zM324 1554v236h268v-236h-268zM735 1554v236h271v-236h-271z" />
<glyph unicode="&#x2c6;" horiz-adv-x="825" d="M61 1159l222 275h260l221 -275h-236l-125 111l-127 -111h-215z" />
<glyph unicode="&#x2dc;" horiz-adv-x="858" d="M61 1176q39 246 244 245q49 0 162 -49q66 -29 106 -29q72 0 84 82h140q-33 -250 -226 -249q-53 0 -155.5 36.5t-149.5 36.5q-39 0 -55 -16t-29 -57h-121z" />
<glyph unicode="&#x2013;" horiz-adv-x="614" d="M0 573v277h614v-277h-614z" />
<glyph unicode="&#x2014;" horiz-adv-x="1310" d="M41 573v277h1229v-277h-1229z" />
<glyph unicode="&#x2018;" horiz-adv-x="540" d="M102 725v313q0 100 56.5 213t146.5 203l117 -88q-55 -66 -97 -145.5t-42 -137.5h155v-358h-336z" />
<glyph unicode="&#x2019;" horiz-adv-x="540" d="M102 1075v359h336v-314q0 -100 -56 -212.5t-146 -202.5l-117 88q55 66 97 145.5t42 136.5h-156z" />
<glyph unicode="&#x201a;" horiz-adv-x="540" d="M102 0v358h336v-313q0 -100 -56 -213t-146 -203l-117 88q55 66 97 146t42 137h-156z" />
<glyph unicode="&#x201c;" horiz-adv-x="997" d="M102 725v313q0 100 56.5 213t146.5 203l117 -88q-55 -66 -97 -145.5t-42 -137.5h155v-358h-336zM559 725v313q0 100 56.5 213t146.5 203l117 -88q-55 -66 -97.5 -145.5t-42.5 -137.5h156v-358h-336z" />
<glyph unicode="&#x201d;" horiz-adv-x="997" d="M102 1075v359h336v-314q0 -100 -56 -212.5t-146 -202.5l-117 88q55 66 97 145.5t42 136.5h-156zM559 1075v359h336v-314q0 -100 -56.5 -212.5t-146.5 -202.5l-117 88q55 66 97.5 145.5t42.5 136.5h-156z" />
<glyph unicode="&#x201e;" horiz-adv-x="997" d="M102 0v358h336v-313q0 -100 -56 -213t-146 -203l-117 88q55 66 97 146t42 137h-156zM559 0v358h336v-313q0 -100 -56.5 -213t-146.5 -203l-117 88q55 66 97.5 146t42.5 137h-156z" />
<glyph unicode="&#x2022;" horiz-adv-x="604" d="M123 715q0 76 52 127t126 51q76 0 128 -51t52 -127q0 -74 -52 -127t-128 -53q-74 0 -126 53t-52 127z" />
<glyph unicode="&#x2026;" horiz-adv-x="1744" d="M123 0v346h336v-346h-336zM705 0v346h335v-346h-335zM1286 0v346h336v-346h-336z" />
<glyph unicode="&#x2039;" horiz-adv-x="520" d="M102 412v270l316 248v-242l-180 -141l180 -146v-241z" />
<glyph unicode="&#x203a;" horiz-adv-x="520" d="M102 160v241l181 146l-181 141v242l316 -248v-270z" />
<glyph unicode="&#x20ac;" horiz-adv-x="1337" d="M61 541l48 143h102v10q0 49 2 74h-152l48 143h122q31 147 106 260t170 175.5t192.5 93t189.5 30.5q242 0 399 -98l-117 -336q-104 135 -256 135q-109 0 -192.5 -66.5t-120.5 -193.5h531l-50 -143h-505v-49v-35h477l-47 -143h-406q37 -119 117 -190.5t199 -71.5 q176 0 282 145v-379q-176 -82 -285 -82q-279 0 -461 166t-229 412h-164z" />
<glyph unicode="&#x2122;" horiz-adv-x="2048" d="M125 1272v162h674v-162h-236v-666h-205v666h-233zM905 606v828h273l206 -545l207 545h271v-828h-193v586h-4l-211 -586h-139l-213 586h-4v-586h-193z" />
<glyph unicode="&#xe000;" horiz-adv-x="1055" d="M0 1055h1055v-1055h-1055v1055z" />
<glyph unicode="&#xfb01;" horiz-adv-x="1277" d="M0 819v238h188v145q0 111 58.5 171.5t210.5 60.5h239v-238h-123q-41 0 -59 -13.5t-18 -49.5v-76h200v-238h-200v-819h-308v819h-188zM846 0v1057h307v-1057h-307zM846 1135v299h307v-299h-307z" />
<glyph unicode="&#xfb02;" horiz-adv-x="1275" d="M0 819v238h188v145q0 111 58.5 171.5t210.5 60.5h239v-238h-123q-41 0 -59 -13.5t-18 -49.5v-76h200v-238h-200v-819h-308v819h-188zM846 0v1434h307v-1434h-307z" />
<glyph unicode="&#xfb03;" horiz-adv-x="2000" d="M0 819v238h193v145q0 111 56 171.5t208 60.5h239v-250h-123q-41 0 -59 -13.5t-18 -50.5v-63h419v145q0 111 56.5 171.5t208.5 60.5h239v-250h-123q-41 0 -59 -13.5t-18 -50.5v-63h200v-238h-200v-819h-306v819h-417v-819h-306v819h-190zM1569 0v1057h309v-1057h-309z M1569 1135v299h309v-299h-309z" />
<glyph unicode="&#xfb04;" horiz-adv-x="1998" d="M0 819v238h193v145q0 111 56 171.5t208 60.5h239v-250h-123q-41 0 -59 -13.5t-18 -50.5v-63h419v145q0 111 56.5 171.5t208.5 60.5h239v-250h-123q-41 0 -59 -13.5t-18 -50.5v-63h200v-238h-200v-819h-306v819h-417v-819h-306v819h-190zM1569 0v1434h307v-1434h-307z" />
</font>
</defs>
</svg>
