<?xml version="1.0" standalone="no"?>
<!DOCTYPE svg PUBLIC "-//W3C//DTD SVG 1.1//EN" "http://www.w3.org/Graphics/SVG/1.1/DTD/svg11.dtd" >
<svg xmlns="http://www.w3.org/2000/svg">
<metadata>
This is a custom SVG webfont generated by Font Squirrel.
Copyright   : Copyright  by Binnenland 2006 All rights reserved This software may not be reproduced used displayed modified disclosed or transferred without the express written approval of Binnenland
Designer    : Binnenland Michael Mischler  Niklaus Thoenen
Foundry URL : wwwbinnenlandch
</metadata>
<defs>
<font id="CatalogProBlack" horiz-adv-x="1325" >
<font-face units-per-em="2048" ascent="1536" descent="-512" />
<missing-glyph horiz-adv-x="563" />
<glyph unicode=" "  horiz-adv-x="563" />
<glyph unicode="&#x09;" horiz-adv-x="563" />
<glyph unicode="&#xa0;" horiz-adv-x="563" />
<glyph unicode="!" horiz-adv-x="503" d="M113 111q0 61 38.5 99t100.5 38q59 0 98 -38t39 -99q0 -59 -39 -99.5t-98 -40.5q-61 0 -100 40.5t-39 99.5zM127 1325h252l-33 -911h-184z" />
<glyph unicode="&#x22;" horiz-adv-x="595" d="M74 977v438h229l-102 -438h-127zM315 1415h228l-105 -438h-121z" />
<glyph unicode="#" horiz-adv-x="1277" d="M66 424v121h262l90 272h-303v121h340l141 440h131l-141 -440h260l143 440h131l-137 -440h227v-121h-268l-92 -272h309v-121h-346l-156 -477h-127l154 477h-262l-152 -477h-133l152 477h-223zM457 545h262l92 272h-262z" />
<glyph unicode="$" horiz-adv-x="1001" d="M63 1016q0 127 101.5 216t263.5 107v158h125v-156q211 -16 330 -139v-252h-138q-29 303 -256 303q-96 0 -145 -61.5t-49 -147.5q0 -96 76 -149q346 -221 385 -244q186 -115 186 -315q0 -139 -107.5 -236.5t-281.5 -117.5v-152h-125v150q-227 18 -344 147v250h156 q39 -305 249 -305q98 0 157 62.5t59 162.5t-72 160q-18 14 -103 68l-178 113l-116 73q-173 119 -173 305z" />
<glyph unicode="%" horiz-adv-x="1394" d="M35 973q0 170 83 261t208 91q127 0 208.5 -88t81.5 -264q0 -172 -82.5 -265.5t-207.5 -93.5q-127 0 -209 90.5t-82 268.5zM231 973q0 -272 95 -273q92 0 92 273q0 268 -92 268q-95 0 -95 -268zM362 -53l517 1431h135l-514 -1431h-138zM774 354q0 170 84 263.5t205 93.5 q129 0 212 -89.5t83 -267.5q0 -170 -84 -262t-211 -92q-123 0 -206 91t-83 263zM975 354q0 -264 88 -264q96 0 96 264q0 272 -96 273q-88 -1 -88 -273z" />
<glyph unicode="&#x26;" horiz-adv-x="1077" d="M66 373q0 121 68.5 212t178.5 132q-156 102 -155 278q0 158 106.5 250t274.5 92q104 0 199.5 -36.5t150.5 -100.5v-235h-144q-16 166 -60 226t-138 60q-78 0 -124 -68.5t-46 -156.5q-2 -119 41 -204t139 -85v-80h-37q-106 -10 -161.5 -94t-55.5 -192q0 -137 67.5 -220 t166.5 -83q119 0 181 75.5t62 175.5q0 137 -57 183h-139v84h465v-84h-101q53 -90 53 -174q0 -147 -124.5 -249t-339.5 -102q-193 0 -332 100.5t-139 295.5z" />
<glyph unicode="'" horiz-adv-x="352" d="M70 1415h235l-104 -438h-129z" />
<glyph unicode="(" horiz-adv-x="534" d="M55 629q0 518 383 772l70 -60q-102 -80 -167 -276.5t-65 -434t65 -433t165 -279.5l-66 -53q-385 246 -385 764z" />
<glyph unicode=")" horiz-adv-x="534" d="M27 -82q102 86 167.5 281.5t65.5 431.5q0 238 -65.5 434.5t-167.5 275.5l67 60q383 -252 383 -772t-387 -768z" />
<glyph unicode="*" horiz-adv-x="919" d="M49 788l295 130l-295 129l92 153l262 -196l-45 323h181l-45 -321l264 192l92 -151l-297 -129l297 -130l-90 -149l-266 197l45 -332h-181l45 327l-264 -194z" />
<glyph unicode="+" horiz-adv-x="1007" d="M82 473v119h360v360h121v-360h361v-119h-361v-360h-121v360h-360z" />
<glyph unicode="," horiz-adv-x="462" d="M76 -193q57 33 96 76q45 45 51 97h-8q-49 0 -86 40.5t-37 90.5q0 53 38 90t91 37q59 0 100 -42t41 -128q0 -129 -88 -228q-29 -29 -62.5 -52.5t-53.5 -33.5l-21 -8z" />
<glyph unicode="-" horiz-adv-x="626" d="M78 475v119h467v-119h-467z" />
<glyph unicode="." horiz-adv-x="450" d="M84 111q0 59 38 97t99.5 38t98 -38t36.5 -97q0 -61 -36.5 -100.5t-98 -39.5t-99.5 39.5t-38 100.5z" />
<glyph unicode="/" horiz-adv-x="860" d="M35 -53l655 1431h133l-655 -1431h-133z" />
<glyph unicode="0" horiz-adv-x="1204" d="M90 573q0 348 148.5 532.5t377.5 184.5q207 0 346.5 -150.5t139.5 -432.5q0 -348 -150.5 -536.5t-380.5 -188.5q-152 0 -263 87t-164.5 218.5t-53.5 285.5zM334 776q0 -115 12 -224.5t41 -224t89.5 -184t144.5 -69.5q236 0 235 440q0 123 -12.5 233.5t-42 218t-89 172 t-143.5 64.5q-235 0 -235 -426z" />
<glyph unicode="1" horiz-adv-x="823" d="M104 1032l357 242h94v-1180h184v-92h-592v92h179v957l-166 -103z" />
<glyph unicode="2" horiz-adv-x="1011" d="M59 1067q150 227 404 227q172 0 303 -93t131 -263q0 -68 -44 -148.5t-86 -130t-136 -149.5l-289 -287h571v-221h-837v78l387 422q190 215 190 430q0 109 -53 175.5t-141 66.5q-84 0 -162 -46.5t-127 -126.5z" />
<glyph unicode="3" horiz-adv-x="1015" d="M78 154l92 77q111 -131 299 -131q96 0 163.5 66.5t67.5 204.5q0 117 -59 184.5t-156 67.5h-102v84q104 0 194.5 68.5t90.5 187.5q0 102 -51.5 155t-127.5 53q-164 0 -278 -165l-107 69q135 215 385 215q164 0 290 -88t126 -252q0 -80 -50 -156.5t-128 -119.5 q90 -29 152.5 -100.5t62.5 -188.5q0 -188 -145.5 -295.5t-327.5 -107.5q-233 0 -391 172z" />
<glyph unicode="4" horiz-adv-x="1134" d="M41 285v92l625 897h168v-832h217v-157h-217v-283h-230v283h-563zM223 442h381v539z" />
<glyph unicode="5" horiz-adv-x="1042" d="M66 154l94 77q113 -133 297 -133q98 0 164.5 77t66.5 231q0 113 -59.5 180t-155.5 67h-362l106 621h643v-217h-567l-41 -244h221q201 0 329 -99.5t128 -307.5q0 -199 -146.5 -312.5t-326.5 -113.5q-235 0 -391 174z" />
<glyph unicode="6" horiz-adv-x="1136" d="M86 567q0 172 50 313.5t132 228.5t181.5 134t201.5 47q205 0 336 -157l-82 -76q-102 125 -252 125q-121 0 -198.5 -118t-100.5 -306q111 88 242 88q193 0 320.5 -112.5t127.5 -330.5q0 -178 -137 -299.5t-319 -121.5q-236 0 -369 173.5t-133 411.5zM346 563 q2 -223 63.5 -356t180.5 -133q88 0 150.5 95t62.5 232q0 166 -60.5 257.5t-154.5 91.5q-72 0 -141.5 -49.5t-100.5 -137.5z" />
<glyph unicode="7" horiz-adv-x="972" d="M45 897v377h897v-35l-569 -1237h-133l493 1057h-549l-61 -162h-78z" />
<glyph unicode="8" horiz-adv-x="1142" d="M111 352q0 117 69.5 203t177.5 117q-80 39 -140 119.5t-60 169.5q0 178 125 261t299 83q82 0 153.5 -17.5t134 -56.5t99.5 -107.5t37 -162.5q0 -86 -58.5 -167t-136.5 -122q106 -33 174 -119t68 -201q0 -133 -72 -225t-174 -130t-225 -38q-197 0 -334 98t-137 295z M362 350q0 -147 61.5 -223t158.5 -76q98 0 161.5 76t63.5 223q0 121 -59.5 199t-165.5 78q-104 0 -162 -78t-58 -199zM393 961q0 -106 53.5 -177t135.5 -71q84 0 139 70.5t55 177.5q0 121 -55 189.5t-139 68.5q-82 0 -135.5 -67.5t-53.5 -190.5z" />
<glyph unicode="9" horiz-adv-x="1136" d="M96 864q0 178 137.5 301t317.5 123q238 0 370 -174t132 -412q0 -340 -163 -533.5t-380 -193.5q-201 0 -340 158l86 80q98 -129 252 -129q121 0 191.5 120t88.5 318q-35 -37 -99 -67.5t-142 -30.5q-193 0 -322 111.5t-129 328.5zM340 866q0 -164 59.5 -254t151.5 -90 q72 0 140.5 44t107.5 128q0 225 -64.5 364.5t-185.5 139.5q-86 0 -147.5 -96.5t-61.5 -235.5z" />
<glyph unicode=":" horiz-adv-x="450" d="M86 111q0 61 39 99t100 38q59 0 98 -38t39 -99q0 -59 -38.5 -99.5t-98 -40.5t-99.5 40.5t-40 99.5zM86 782q0 61 39 101.5t100 40.5q59 0 98 -39t39 -103q0 -59 -38.5 -97t-98 -38t-99.5 39t-40 96z" />
<glyph unicode=";" horiz-adv-x="462" d="M76 -193q57 33 96 76q45 45 51 97h-8q-49 0 -86 40.5t-37 90.5q0 53 38 90t91 37q59 0 100 -42t41 -128q0 -135 -88 -228q-27 -29 -61.5 -52.5t-54.5 -33.5l-21 -8zM92 782q0 59 38 97.5t95.5 38.5t94 -38t36.5 -98q0 -55 -36.5 -93t-94 -38t-95.5 38t-38 93z" />
<glyph unicode="&#x3c;" horiz-adv-x="1007" d="M82 473v119l842 328v-136l-654 -252l654 -258v-131z" />
<glyph unicode="=" horiz-adv-x="1007" d="M82 348v123h842v-123h-842zM82 600v119h842v-119h-842z" />
<glyph unicode="&#x3e;" horiz-adv-x="1007" d="M82 143v131l653 258l-653 252v136l842 -328v-119z" />
<glyph unicode="?" horiz-adv-x="868" d="M18 952v250q131 145 390 146q195 0 313.5 -93.5t118.5 -236.5q0 -66 -24.5 -123t-51.5 -87t-76 -77l-153 -149q-74 -74 -74 -168h-168q0 100 22.5 148t102.5 132q84 92 133 156q55 68 55 197q0 86 -49 146t-145 60q-223 0 -250 -301h-144zM242 111q0 61 38.5 99t100.5 38 q59 0 98 -38t39 -99q0 -59 -40 -99.5t-97 -40.5q-61 0 -100 40.5t-39 99.5z" />
<glyph unicode="@" horiz-adv-x="1945" d="M98 456.5q0 372.5 262.5 634t634.5 261.5q367 0 609.5 -230.5t242.5 -568.5q0 -236 -132 -410t-312 -174q-90 0 -158.5 27t-93.5 74q-102 -92 -272 -93q-188 0 -275.5 97.5t-87.5 249.5q0 150 58.5 288t179 232t276.5 94q113 0 189 -49l6 29h227l-104 -719q-8 -53 12 -86 t55 -33q127 0 220.5 145.5t93.5 327.5q0 285 -211 489.5t-523 204.5q-319 0 -548.5 -233.5t-229.5 -557t229.5 -557t548.5 -233.5q135 0 272.5 55.5t221.5 155.5l82 -78q-109 -111 -263.5 -174t-312.5 -63q-373 0 -635 261t-262 633.5zM762 360q0 -123 33.5 -203.5 t103.5 -80.5q76 0 145.5 61.5t81.5 159.5l50 324q4 20 4 57q0 86 -45 125t-115 39t-123 -47t-81 -123t-41 -154t-13 -158z" />
<glyph unicode="A" horiz-adv-x="1302" d="M-4 0v100h166l438 1227h141l443 -1227h147v-100h-551v100h144l-138 377h-372l-131 -377h151v-100h-438zM451 584h305l-154 436z" />
<glyph unicode="B" horiz-adv-x="1196" d="M33 0v100h176v1131h-176v96h663q162 0 266.5 -96t104.5 -236q0 -74 -46 -147.5t-118 -120.5q109 -41 173.5 -131t64.5 -209q0 -170 -122 -278.5t-321 -108.5h-665zM455 100h213q86 0 150.5 78t64.5 207q0 109 -61.5 187.5t-155.5 78.5h-211v-551zM455 760h186 q76 0 126 63.5t50 167.5q0 106 -53 173t-123 67h-186v-471z" />
<glyph unicode="C" horiz-adv-x="1148" d="M59 604q0 141 35 269t104.5 236t188.5 172.5t272 64.5q258 0 426 -172v-224h-157q-16 152 -97 228.5t-172 76.5q-123 0 -201.5 -70.5t-110.5 -177t-32 -247.5q0 -172 35 -320.5t115 -251t194 -102.5q195 0 322 154l88 -76q-154 -186 -410 -187q-160 0 -280.5 55.5 t-188 148.5t-99.5 198.5t-32 224.5z" />
<glyph unicode="D" horiz-adv-x="1359" d="M37 0v100h172v1131h-172v96h659q309 0 453.5 -182t144.5 -467q0 -127 -33.5 -243t-101 -216t-187.5 -159.5t-276 -59.5h-659zM459 100h237q123 0 203 88t108.5 211t28.5 281q0 250 -84 400.5t-256 150.5h-237v-1131z" />
<glyph unicode="E" horiz-adv-x="1161" d="M33 0v100h174v1131h-174v96h1054v-373h-126l-105 277h-403v-471h215v139h123v-389h-123v141h-215v-551h421l103 273h127v-373h-1071z" />
<glyph unicode="F" horiz-adv-x="1136" d="M33 0v100h172v1131h-172v96h1054v-373h-126l-105 277h-403v-471h215v139h123v-389h-123v141h-215v-551h174v-100h-594z" />
<glyph unicode="G" horiz-adv-x="1323" d="M63 604q0 143 34 271.5t101.5 236t186.5 171t274 63.5q279 0 447 -172v-224h-160q-16 152 -103 228.5t-184 76.5q-123 0 -201.5 -70.5t-110.5 -177t-32 -247.5q0 -174 34 -324.5t115 -256t195 -105.5q104 0 176 77.5t72 190.5v135h-223v101h584v-101h-111v-477h-248v84 q-33 -45 -107.5 -76t-160.5 -31q-131 0 -232.5 37t-166 97.5t-105.5 144.5t-57.5 169t-16.5 179z" />
<glyph unicode="H" horiz-adv-x="1370" d="M33 0v100h139v1131h-139v96h522v-96h-137v-475h526v475h-135v96h522v-96h-139v-1131h139v-100h-522v100h135v549h-526v-549h137v-100h-522z" />
<glyph unicode="I" horiz-adv-x="704" d="M29 0v100h196v1131h-196v96h645v-96h-203v-1131h203v-100h-645z" />
<glyph unicode="J" horiz-adv-x="698" d="M-129 -348l74 74q84 -74 186 -74q88 0 88 133v1446h-196v96h641v-96h-201v-1337q0 -168 -98.5 -254t-233.5 -86q-154 0 -260 98z" />
<glyph unicode="K" horiz-adv-x="1378" d="M35 0v100h151v1131h-147v96h536v-96h-143v-490h70l438 490h-145v96h475v-96h-178l-416 -457l557 -674h166v-100h-611v100h138l-437 535h-57v-535h143v-100h-540z" />
<glyph unicode="L" horiz-adv-x="1163" d="M29 0v100h176v1131h-176v96h604v-96h-182v-1131h442l102 273h119v-373h-1085z" />
<glyph unicode="M" horiz-adv-x="1658" d="M51 0v100h160v1129h-160v98h395l398 -1001l381 1001h389v-98h-156v-1129h160v-100h-551v100h145v877l-368 -977h-127l-391 981v-881h151v-100h-426z" />
<glyph unicode="N" horiz-adv-x="1318" d="M45 0v100h160v1129h-156v98h363l579 -907v809h-157v98h442v-98h-168v-1229h-152l-639 1008v-908h168v-100h-440z" />
<glyph unicode="O" d="M63 604q0 141 35 269t103.5 236t187.5 172.5t270 64.5q158 0 278 -54.5t187.5 -146.5t100 -197.5t32.5 -224.5q0 -139 -34.5 -268t-103 -237.5t-187.5 -174.5t-273 -66q-160 0 -279.5 55.5t-186 148.5t-98.5 198.5t-32 224.5zM317 760q0 -127 19.5 -247t59.5 -220 t108.5 -161.5t154.5 -61.5q182 0 264.5 138t82.5 367q0 172 -35 322t-117 254t-197 104q-178 0 -259 -138t-81 -357z" />
<glyph unicode="P" horiz-adv-x="1153" d="M33 0v100h157v1131h-157v96h614q211 0 319.5 -99.5t108.5 -252.5q0 -158 -116.5 -264.5t-311.5 -106.5h-209v-504h158v-100h-563zM438 709h187q78 0 131 75.5t53 186.5q0 115 -51 187.5t-133 72.5h-187v-522z" />
<glyph unicode="Q" d="M63 604q0 141 35 269t104.5 236t187.5 172.5t272 64.5q127 0 230 -36t170.5 -96.5t114 -142.5t66 -169t19.5 -179q0 -109 -21.5 -214.5t-68 -204.5t-126 -178t-186.5 -118l74 -114q51 -80 88 -116t78 -36q104 0 196 92l68 -82q-104 -109 -264 -108q-152 0 -254.5 54 t-149.5 124l-98 155q-117 8 -210 50.5t-152.5 102.5t-99.5 140t-56.5 163t-16.5 171zM319 760q0 -176 34 -326.5t114 -257t195 -106.5q182 0 264 138t82 365q0 172 -36 323t-117 254t-196 103q-123 0 -200.5 -70.5t-108.5 -176t-31 -246.5z" />
<glyph unicode="R" horiz-adv-x="1247" d="M33 0v100h155v1129h-155v98h608q215 0 322.5 -99.5t107.5 -252.5q0 -129 -70.5 -221t-203.5 -123l358 -531h156v-100h-375l-397 604h-105v-504h156v-100h-557zM434 709h191q76 0 129 74.5t53 187t-51 185.5t-131 73h-191v-520z" />
<glyph unicode="S" horiz-adv-x="1009" d="M74 1016q0 145 112.5 237.5t309.5 92.5q252 0 387 -142v-252h-158q-16 168 -75.5 235.5t-157.5 67.5q-96 0 -141.5 -61t-45.5 -150q0 -94 76 -147q8 -4 170 -112.5t205 -133.5q188 -117 188 -315q0 -156 -126 -257.5t-331 -101.5q-270 0 -407 150v250h156 q39 -305 251 -305q98 0 158 62.5t60 162.5t-72 160q-25 20 -197 132l-190 124q-172 119 -172 303z" />
<glyph unicode="T" horiz-adv-x="1165" d="M39 954v373h1085v-373h-116l-105 277h-198v-1131h174v-100h-594v100h174v1131h-201l-102 -277h-117z" />
<glyph unicode="U" horiz-adv-x="1300" d="M23 1231v96h565v-96h-160v-844q0 -143 63.5 -221t188.5 -78q119 0 215 68.5t96 208.5v866h-170v96h455v-96h-162v-864q0 -176 -121 -283t-331 -107q-225 0 -352.5 119t-127.5 340v795h-159z" />
<glyph unicode="V" horiz-adv-x="1353" d="M-16 1231v96h596v-96h-156l319 -916l328 916h-197v96h512v-96h-194l-440 -1231h-152l-438 1231h-178z" />
<glyph unicode="W" horiz-adv-x="1939" d="M-16 1231v96h587v-96h-159l274 -862l268 950h133l304 -954l266 866h-201v96h512v-96h-188l-381 -1231h-139l-297 918l-265 -918h-141l-397 1231h-176z" />
<glyph unicode="X" horiz-adv-x="1388" d="M0 0v100h201l372 539l-376 592h-177v96h605v-96h-138l236 -377l260 377h-174v96h489v-96h-182l-323 -486l415 -645h174v-100h-632v100h168l-275 435l-301 -435h180v-100h-522z" />
<glyph unicode="Y" horiz-adv-x="1224" d="M-8 1231v96h579v-96h-147l246 -510l262 510h-172v96h471v-96h-180l-316 -621v-510h199v-100h-639v100h197v461l-330 670h-170z" />
<glyph unicode="Z" horiz-adv-x="1126" d="M37 0v94l776 1137h-514l-109 -277h-112v373h997v-84l-768 -1143h565l107 273h115v-373h-1057z" />
<glyph unicode="[" horiz-adv-x="497" d="M129 -354v1769h375v-112h-203v-1545h203v-112h-375z" />
<glyph unicode="\" horiz-adv-x="718" d="M35 1378h135l516 -1431h-137z" />
<glyph unicode="]" horiz-adv-x="497" d="M-8 -242h203v1545h-203v112h373v-1769h-373v112z" />
<glyph unicode="^" horiz-adv-x="804" d="M20 561l326 832h111l325 -832h-120l-259 670l-264 -670h-119z" />
<glyph unicode="_" horiz-adv-x="950" d="M49 -123h842v-117h-842v117z" />
<glyph unicode="`" horiz-adv-x="489" d="M-27 1214l144 148l327 -342h-157z" />
<glyph unicode="a" horiz-adv-x="985" d="M68 219q0 147 227 225l301 105v74q0 117 -28.5 172t-100.5 55q-63 0 -98 -44q-30 -37 -30 -88q0 -9 1 -18l8 -79h-233q-1 10 -1 20q0 80 44 147q84 147 319 148q350 0 350 -313v-486q0 -18 18.5 -29.5t37.5 -7.5l63 33l41 -76q-106 -80 -213 -80q-53 0 -97 23t-63 47 q-96 -70 -221 -70q-166 0 -245.5 56.5t-79.5 185.5zM311 219q0 -55 29 -96t82 -41q86 0 174 76v286l-186 -63q-99 -35 -99 -162z" />
<glyph unicode="b" horiz-adv-x="1075" d="M-10 1300v84l370 27v-537q82 61 201 62q223 0 330.5 -123t107.5 -311q0 -207 -112.5 -366t-317.5 -159q-139 0 -209 78v-55h-229v1300h-141zM360 291q0 -98 60.5 -154.5t146.5 -56.5q193 0 193 319q0 188 -51.5 311.5t-151.5 123.5q-84 0 -140.5 -52.5t-56.5 -167.5v-323 z" />
<glyph unicode="c" horiz-adv-x="927" d="M78 414q0 133 41 247.5t141 194.5t244 80q174 0 252 -66.5t114 -183.5h-219q-27 158 -145 158q-190 0 -191 -326q0 -182 57.5 -306t172.5 -124q150 0 227 162l94 -29q-43 -113 -135 -178.5t-221 -65.5q-219 0 -325.5 129.5t-106.5 307.5z" />
<glyph unicode="d" horiz-adv-x="1064" d="M78 418q0 100 24.5 190t72.5 166t132 120t195 44q104 0 200 -64v426h-141v84l371 27v-1411h-230v55q-84 -78 -196 -78q-117 0 -203 39t-133 104.5t-69.5 139.5t-22.5 158zM317 518v-14q0 -171 47 -295q48 -129 146 -129q82 0 137 54t55 163v317q0 111 -59 165.5 t-137 54.5q-98 0 -143.5 -88.5t-45.5 -227.5z" />
<glyph unicode="e" horiz-adv-x="978" d="M78 418q0 213 109.5 365.5t318.5 152.5q211 0 311.5 -121t100.5 -338h-601q6 -158 65.5 -273.5t168.5 -115.5q90 0 140 44t91 122l105 -31q-57 -117 -137 -181.5t-232 -64.5q-225 0 -332.5 130.5t-107.5 310.5zM317 571h334q0 117 -36.5 197t-108.5 80q-88 0 -134.5 -77 t-54.5 -200z" />
<glyph unicode="f" horiz-adv-x="692" d="M43 0v88h141v739h-141v88h141v164q0 166 101.5 249t236.5 83q129 0 242 -96l-74 -74h-4q-92 72 -154 72q-121 0 -120 -197v-201h272v-88h-272v-739h190v-88h-559z" />
<glyph unicode="g" horiz-adv-x="1064" d="M57 -135q0 55 30 105t77 79q-70 57 -70 131q0 80 109 170q-39 41 -66.5 107.5t-27.5 134.5q0 158 109.5 251t277.5 93q186 0 284 -94h228v-92h-156q35 -76 35 -158q0 -156 -112.5 -248t-278.5 -92q-115 0 -197 33q-29 -47 -29 -99q0 -39 23.5 -68.5t66.5 -29.5h84v-88 h-86q-72 -35 -71 -143q0 -94 57 -151.5t158 -57.5q104 0 161.5 57t57.5 152q0 113 -68 143h-110v88h479v-88h-125q53 -72 53 -135q0 -141 -122.5 -224t-327.5 -83q-215 0 -329 81t-114 226zM340 625v-11q0 -110 39 -191q41 -85 119 -85h5q82 0 115 65q35 68 35 179 q-2 111 -45 189.5t-123 78.5q-76 0 -110.5 -63.5t-34.5 -161.5z" />
<glyph unicode="h" horiz-adv-x="1093" d="M25 1303v81l370 27v-545q78 72 209 72q195 0 266.5 -86t71.5 -234v-530h125v-88h-481v88h127v530q0 221 -138 222q-76 0 -128 -54.5t-52 -164.5v-533h123v-88h-477v88h127v1215h-143z" />
<glyph unicode="i" horiz-adv-x="624" d="M45 0v88h158v739h-144v84l373 25v-848h160v-88h-547zM176 1187.5q0 59.5 40 100.5t101.5 41t101.5 -41t40 -100.5t-40 -100t-101.5 -40.5t-101.5 40.5t-40 100z" />
<glyph unicode="j" horiz-adv-x="598" d="M-174 -348l72 74q90 -70 157 -70q127 0 127 199v972h-147v84l371 25v-1047q0 -166 -101.5 -247.5t-238.5 -81.5q-134 0 -240 92zM141 1187.5q0 59.5 40 100.5t101.5 41t101.5 -41t40 -100.5t-40 -100t-101.5 -40.5t-101.5 40.5t-40 100z" />
<glyph unicode="k" horiz-adv-x="1069" d="M10 1303v81l371 27v-868h74l272 284h-147v91h434v-91h-144l-266 -274l379 -465h119v-88h-492v88h99l-291 365h-37v-365h119v-88h-473v88h127v1215h-144z" />
<glyph unicode="l" horiz-adv-x="555" d="M25 1303v81l370 25v-1321h127v-88h-483v88h127v1215h-141z" />
<glyph unicode="m" horiz-adv-x="1562" d="M45 827v84l371 25v-72q78 72 186 72q184 0 262 -109q94 109 232 109q178 0 243.5 -85t65.5 -233v-530h131v-88h-459v88h99v530q0 117 -24 169.5t-79 52.5q-66 0 -115 -48.5t-49 -158.5v-545h113v-88h-451v88h109v530q0 119 -22.5 170.5t-79.5 51.5q-66 0 -114 -51.5 t-48 -167.5v-533h104v-88h-463v88h131v739h-143z" />
<glyph unicode="n" horiz-adv-x="1097" d="M45 0v88h127v739h-127v84l354 27v-74q80 74 209 74q195 0 266.5 -86t71.5 -234v-530h125v-88h-481v88h127v530q0 221 -137 222q-76 0 -128.5 -54.5t-52.5 -164.5v-533h123v-88h-477z" />
<glyph unicode="o" horiz-adv-x="1011" d="M78 416q0 213 108.5 366.5t319.5 153.5q219 0 324.5 -129t105.5 -307q0 -205 -113.5 -364t-316.5 -159q-117 0 -203 38t-133 103.5t-69.5 139.5t-22.5 158zM317 524q0 -182 48.5 -320t140.5 -138q190 0 190 329q0 117 -19.5 216.5t-63.5 168t-107 68.5 q-98 0 -143.5 -91.5t-45.5 -232.5z" />
<glyph unicode="p" horiz-adv-x="1071" d="M-10 -334h143v1249h229v-55q84 76 197 76q221 0 328.5 -123t107.5 -311q0 -129 -43 -246t-143 -199t-238 -82q-117 0 -209 72v-381h140v-86h-512v86zM362 287q0 -96 61.5 -151.5t145.5 -55.5q190 0 191 319q0 188 -50.5 311.5t-150.5 123.5q-82 0 -139.5 -53.5 t-57.5 -164.5v-329z" />
<glyph unicode="q" horiz-adv-x="1056" d="M78 418q0 127 42 240.5t142 196.5t242 83q125 0 198 -70v29l232 49v-1280h141v-86h-514v86h141v381q-82 -70 -194 -70q-221 0 -325.5 130.5t-104.5 310.5zM317 524v-14q0 -169 49 -297q50 -133 148 -133q80 0 134 57.5t54 165.5v315q0 111 -58 163.5t-136 52.5 q-98 0 -144.5 -86.5t-46.5 -223.5z" />
<glyph unicode="r" horiz-adv-x="823" d="M41 827v84l352 27v-139q96 143 252 143q55 0 101.5 -14.5t64.5 -26.5l20 -14v-62l-135 -127q-57 96 -141 97q-63 0 -112.5 -63.5t-49.5 -149.5v-494h168v-88h-518v88h125v739h-127z" />
<glyph unicode="s" horiz-adv-x="874" d="M76 90v232h143q0 -133 61.5 -193.5t149.5 -60.5q68 0 105.5 38.5t37.5 100.5q0 59 -45 90l-295 172q-145 86 -145 227q0 104 94 172t250 68q98 0 186.5 -31t137.5 -80v-231h-148q0 254 -178 254q-66 0 -96.5 -38t-30.5 -93q0 -57 47 -84l54 -32l97 -55q56 -32 136 -73 q156 -84 156 -240q0 -111 -100.5 -183.5t-262.5 -72.5q-119 0 -214 33t-140 80z" />
<glyph unicode="t" horiz-adv-x="694" d="M45 827v66l258 231h66v-209h297v-88h-297v-587q0 -158 104 -158q72 0 150 61l59 -71q-125 -94 -240 -95q-303 0 -303 273v577h-94z" />
<glyph unicode="u" horiz-adv-x="1093" d="M31 827v88h354v-618q0 -221 133 -221q78 0 131 54t53 167v530h-124v88h352v-827h127v-84l-355 -27v70q-72 -70 -210 -70q-195 0 -265.5 86.5t-70.5 233.5v530h-125z" />
<glyph unicode="v" horiz-adv-x="999" d="M-18 827v88h493v-88h-127l215 -534l205 534h-141v88h409v-88h-143l-305 -827h-137l-351 827h-118z" />
<glyph unicode="w" horiz-adv-x="1476" d="M-18 827v88h503v-88h-137l191 -530l215 618h88l241 -630l168 542h-147v88h409v-88h-139l-270 -827h-137l-217 543l-191 -543h-139l-311 827h-127z" />
<glyph unicode="x" horiz-adv-x="1056" d="M35 0v90h127l248 356l-248 381h-115v88h461v-88h-92l133 -200l137 200h-102v88h364v-88h-121l-213 -307l285 -430h125v-90h-506v90h121l-156 250l-172 -250h111v-90h-387z" />
<glyph unicode="y" horiz-adv-x="980" d="M-18 827v88h493v-88h-129l217 -536l201 536h-135v88h389v-88h-131l-400 -1056q-80 -213 -254 -213q-106 0 -221 100l74 84q86 -80 147 -80q88 0 132 109l84 213l-349 843h-118z" />
<glyph unicode="z" horiz-adv-x="911" d="M51 0v80l533 747h-301l-86 -221h-109v309h746v-73l-521 -752h349l88 223h106v-313h-805z" />
<glyph unicode="{" horiz-adv-x="577" d="M55 653v41q76 23 99.5 55.5t23.5 106.5v283q0 121 97.5 191.5t226.5 78.5l20 -53q-80 -20 -107.5 -65.5t-27.5 -129.5v-280q0 -84 -23.5 -132.5t-93.5 -74.5q72 -27 94.5 -74t22.5 -133v-283q0 -82 28.5 -127t106.5 -65l-20 -53q-129 6 -226.5 77.5t-97.5 192.5v283 q0 74 -23.5 107.5t-99.5 53.5z" />
<glyph unicode="|" horiz-adv-x="344" d="M109 -80v1491h127v-1491h-127z" />
<glyph unicode="}" horiz-adv-x="577" d="M53 -8q78 20 106.5 65t28.5 127v283q0 84 25 131t94 76q-72 27 -95.5 74t-23.5 133v280q0 84 -27.5 129t-107.5 66l21 53q131 -8 227 -78.5t96 -191.5v-283q0 -74 23.5 -106.5t99.5 -55.5v-43q-76 -20 -99.5 -53t-23.5 -106v-283q0 -121 -97 -192.5t-226 -77.5z" />
<glyph unicode="~" horiz-adv-x="974" d="M51 453q20 88 77.5 146t147.5 58q61 0 259 -41q166 -35 200 -34q18 0 34.5 22.5t21.5 48.5h129q-16 -90 -70.5 -149.5t-142.5 -59.5q-68 0 -265 45q-168 37 -202 37q-18 0 -36 -22.5t-22 -50.5h-131z" />
<glyph unicode="&#xa1;" horiz-adv-x="503" d="M113 817q0 61 38.5 100t100.5 39q59 0 98 -38.5t39 -100.5q0 -59 -39 -98t-98 -39q-61 0 -100 39t-39 98zM123 -401l35 913h184l33 -913h-252z" />
<glyph unicode="&#xa2;" horiz-adv-x="985" d="M78 623q0 190 93 340.5t271 177.5v188h125v-188q76 -8 132.5 -34t91 -67t54 -83t34.5 -97h-234q-12 90 -51 141.5t-88 51.5q-190 0 -191 -328q0 -180 57.5 -304t172.5 -124q57 0 117.5 26.5t97.5 82.5l82 -70q-94 -123 -275 -148v-188h-125v190q-182 23 -273 147t-91 286 z" />
<glyph unicode="&#xa3;" horiz-adv-x="1095" d="M20 0v102h168v637h-155v105h155v119q0 195 123 290t307 95q244 0 381 -144v-252h-155q-16 168 -73.5 235.5t-152.5 67.5q-88 0 -135 -72.5t-47 -209.5v-129h316v-105h-316v-637h381l101 271h124v-373h-1022z" />
<glyph unicode="&#xa5;" horiz-adv-x="1265" d="M12 1229v96h576v-96h-146l246 -510l262 510h-172v96h467v-96h-178l-193 -385h218v-105h-273l-65 -129v-18h336v-107h-336v-385h198v-100h-639v100h197v385h-338v107h324l-76 147h-248v105h199l-193 385h-166z" />
<glyph unicode="&#xa6;" horiz-adv-x="845" d="M215 0v584h127v-584h-127zM215 745v584h127v-584h-127z" />
<glyph unicode="&#xa7;" horiz-adv-x="854" d="M59 715q0 139 152 209q-125 90 -125 217q0 102 95 169.5t251 67.5q197 0 309 -108v-234h-149q0 246 -162 246q-66 0 -97.5 -36t-31.5 -89q0 -59 43 -86q139 -82 295 -164h-2q154 -80 154 -231q0 -63 -43 -120.5t-117 -96.5q141 -82 141 -226q0 -111 -100.5 -183.5 t-263.5 -72.5q-236 0 -336 115v232h145q0 -127 55.5 -187.5t135.5 -60.5q68 0 105.5 35.5t37.5 95.5q0 33 -11.5 56.5t-45 49t-64.5 42.5l-103 57l-126 69q-142 84 -142 234zM274 733q0 -37 27 -68.5t51.5 -48t82.5 -46.5l75 -38q66 37 65 117q0 29 -8 49.5t-35.5 42 t-44 31.5t-71.5 39l-82 43q-60 -35 -60 -121z" />
<glyph unicode="&#xa8;" horiz-adv-x="780" d="M78 1192q0 53 37 90t90 37q55 0 91 -37t36 -90t-36 -89t-91 -36q-53 0 -90 37t-37 88zM446 1192q0 53 37 90t90.5 37t90 -37t36.5 -90q0 -51 -36.5 -88t-90 -37t-90.5 36t-37 89z" />
<glyph unicode="&#xa9;" horiz-adv-x="1484" d="M47 662q0 285 205 483t493 198q291 0 495 -198.5t204 -482.5q0 -281 -205 -480.5t-493.5 -199.5t-493.5 199.5t-205 480.5zM150 662q0 -242 175 -415t420.5 -173t423 173t177.5 415q0 246 -177.5 419.5t-423 173.5t-420.5 -173.5t-175 -419.5zM377 635q0 188 96 327.5 t281 139.5q287 0 346 -260h-209q-12 86 -47 140t-90 54q-98 0 -142.5 -85t-44.5 -218q0 -166 58.5 -292t162.5 -126q66 0 123.5 38t89.5 100l70 -39q-49 -80 -120.5 -127t-194.5 -47q-197 0 -288 115.5t-91 279.5z" />
<glyph unicode="&#xaa;" horiz-adv-x="716" d="M39 805q0 121 166 176l217 74v35q0 84 -17.5 121.5t-66.5 37.5q-41 0 -62.5 -23.5t-21.5 -60.5q0 -4 1 -11t1 -9l8 -55l-196 -3v15q0 33 10 65.5t35.5 69.5t84 59.5t142.5 22.5q258 0 258 -229v-375q0 -8 10 -8l54 30l34 -73q-70 -47 -149 -48q-55 0 -109 48 q-63 -47 -153 -48q-246 1 -246 189zM223 805q0 -39 21.5 -72t54.5 -33q63 0 123 54v215q-16 -6 -52 -17.5t-56.5 -19.5t-44 -24.5t-35 -42t-11.5 -60.5z" />
<glyph unicode="&#xab;" horiz-adv-x="929" d="M49 473l445 416l75 -72l-262 -344l262 -344l-75 -72zM350 473l447 416l71 -70l-264 -346l264 -346l-71 -70z" />
<glyph unicode="&#xac;" horiz-adv-x="903" d="M27 616v117h829l-2 -473h-119v356h-708z" />
<glyph unicode="&#xad;" horiz-adv-x="626" d="M78 475v119h467v-119h-467z" />
<glyph unicode="&#xae;" horiz-adv-x="1484" d="M47 662q0 285 205 483t493 198q291 0 495 -198.5t204 -482.5q0 -281 -205 -480.5t-493.5 -199.5t-493.5 199.5t-205 480.5zM150 662q0 -242 175 -415t420.5 -173t423 173t177.5 415q0 246 -177.5 419.5t-423 173.5t-420.5 -173.5t-175 -419.5zM389 266v74h100v680h-100 v72h406q100 0 166.5 -64.5t66.5 -155.5q0 -80 -54 -145t-136 -78l186 -309h106v-74h-247l-226 381h-6v-307h109v-74h-371zM651 723h109q41 0 71.5 44t30.5 105q0 68 -29.5 108t-72.5 40h-109v-297z" />
<glyph unicode="&#xaf;" horiz-adv-x="559" d="M25 1047v102h510v-102h-510z" />
<glyph unicode="&#xb0;" horiz-adv-x="604" d="M78 1180q0 90 64.5 153.5t154.5 63.5q94 0 159.5 -63.5t65.5 -153.5q0 -94 -65.5 -161t-159.5 -67q-90 0 -154.5 67t-64.5 161zM205 1180q0 -43 24.5 -74t67.5 -31t71.5 31t28.5 74q0 39 -29.5 69.5t-70.5 30.5q-43 0 -67.5 -29.5t-24.5 -70.5z" />
<glyph unicode="&#xb1;" horiz-adv-x="1028" d="M78 0v119h850v-119h-850zM98 473v119h365v358h121v-358h362v-119h-362v-340h-121v340h-365z" />
<glyph unicode="&#xb2;" horiz-adv-x="608" d="M82 1188q88 131 221 131q92 0 162 -50t70 -145q0 -86 -138 -231l-135 -139h281v-113h-449v53l195 217q100 109 100 211q0 51 -24.5 82t-65.5 31q-86 0 -139 -94z" />
<glyph unicode="&#xb3;" horiz-adv-x="608" d="M63 725l68 53q55 -72 150 -71q43 0 74.5 30.5t31.5 93.5q0 53 -28.5 85t-71.5 32h-64v66q53 0 99.5 31.5t46.5 84.5q0 47 -22.5 72t-57.5 25q-78 0 -135 -88l-74 47q80 125 209 125q90 0 157.5 -48.5t67.5 -138.5q0 -76 -76 -133q92 -51 92 -151q0 -102 -76.5 -159.5 t-172.5 -57.5q-134 0 -218 102z" />
<glyph unicode="&#xb4;" horiz-adv-x="569" d="M43 1020l328 342l143 -148l-313 -194h-158z" />
<glyph unicode="&#xb5;" horiz-adv-x="1089" d="M135 -379v1294h230v-618q0 -221 137 -221q74 0 127 55t53 166v618h227v-815q6 -10 19 -10q8 0 26.5 9.5t32.5 19.5l12 8l41 -88q-92 -63 -192 -64q-90 0 -150 74q-76 -72 -217 -72q-63 0 -116 29v-434z" />
<glyph unicode="&#xb6;" horiz-adv-x="1153" d="M127 973q0 154 107.5 253t316.5 99h522v-96h-158v-1229h-106v1229h-156v-1229h-106v604q-190 2 -305 107.5t-115 261.5z" />
<glyph unicode="&#xb7;" horiz-adv-x="413" d="M68 485q0 59 39.5 99.5t99 40.5t98.5 -40t39 -100q0 -61 -39 -101t-98.5 -40t-99 40t-39.5 101z" />
<glyph unicode="&#xb8;" horiz-adv-x="485" d="M57 -248l232 205h145l-223 -354z" />
<glyph unicode="&#xb9;" horiz-adv-x="632" d="M141 1169l195 129h61v-598h95v-69h-326v69h92v453l-78 -45z" />
<glyph unicode="&#xba;" horiz-adv-x="649" d="M33 973q0 168 84 260t209 92t207.5 -88t82.5 -264q0 -172 -83.5 -265.5t-206.5 -93.5q-127 0 -210 90.5t-83 268.5zM231 973q0 -272 95 -273q90 0 90 273q0 268 -90 268q-95 0 -95 -268z" />
<glyph unicode="&#xbb;" horiz-adv-x="929" d="M59 127l265 346l-265 346l72 70l447 -416l-447 -416zM358 129l263 344l-263 344l76 72l445 -416l-445 -416z" />
<glyph unicode="&#xbc;" horiz-adv-x="1353" d="M141 1169l195 129h61v-598h95v-69h-326v69h92v453l-78 -45zM362 -53l517 1431h135l-514 -1431h-138zM715 158v61l323 463h101v-420h110v-104h-110v-144h-140v144h-284zM840 262h159v225z" />
<glyph unicode="&#xbd;" horiz-adv-x="1353" d="M141 1169l195 129h61v-598h95v-69h-326v69h92v453l-78 -45zM362 -53l517 1431h135l-514 -1431h-138zM829 557q84 131 222 131q92 0 161.5 -50t69.5 -142.5t-139 -231.5l-135 -141h282v-113h-448v53l194 220q98 102 99 209q0 51 -25 81.5t-63 30.5q-84 0 -142 -92z" />
<glyph unicode="&#xbe;" horiz-adv-x="1353" d="M63 725l68 53q55 -72 150 -71q43 0 74.5 30.5t31.5 93.5q0 53 -28.5 85t-71.5 32h-64v66q53 0 99.5 31.5t46.5 84.5q0 47 -22.5 72t-57.5 25q-78 0 -135 -88l-74 47q80 125 209 125q90 0 157.5 -48.5t67.5 -138.5q0 -76 -76 -133q92 -51 92 -151q0 -102 -76.5 -159.5 t-172.5 -57.5q-134 0 -218 102zM362 -53l517 1431h135l-514 -1431h-138zM715 158v61l323 463h101v-420h110v-104h-110v-144h-140v144h-284zM840 262h159v225z" />
<glyph unicode="&#xbf;" horiz-adv-x="868" d="M29 -96q0 66 25.5 123t50 85.5t73.5 77.5l154 154q72 72 71 166h168q0 -100 -22.5 -148.5t-99.5 -134.5q-86 -98 -132 -155q-57 -76 -57 -193q0 -88 49 -149.5t146 -61.5q233 0 262 301h143v-250q-137 -143 -401 -143q-195 0 -312.5 92.5t-117.5 235.5zM344 817 q0 61 39 100t98.5 39t99.5 -38.5t40 -100.5q0 -59 -40 -98t-99.5 -39t-98.5 39t-39 98z" />
<glyph unicode="&#xc0;" horiz-adv-x="1302" d="M6 0v100h166l438 1227h142l442 -1227h147v-100h-550v100h143l-137 377h-373l-131 -377h151v-100h-438zM438 1593l144 148l327 -342h-157zM461 584h305l-154 436z" />
<glyph unicode="&#xc1;" horiz-adv-x="1302" d="M6 0v100h166l438 1227h142l442 -1227h147v-100h-550v100h143l-137 377h-373l-131 -377h151v-100h-438zM399 1395l328 342l143 -148l-313 -194h-158zM461 584h305l-154 436z" />
<glyph unicode="&#xc2;" horiz-adv-x="1302" d="M6 0v100h166l438 1227h142l442 -1227h147v-100h-550v100h143l-137 377h-373l-131 -377h151v-100h-438zM317 1399l345 350l342 -350h-156l-189 119q-39 -18 -94 -58q-41 -31 -98 -61h-150zM461 584h305l-154 436z" />
<glyph unicode="&#xc3;" horiz-adv-x="1302" d="M6 0v100h166l438 1227h142l442 -1227h147v-100h-550v100h143l-137 377h-373l-131 -377h151v-100h-438zM338 1393q20 88 77.5 145t147.5 57q72 0 146 -39q88 -37 102 -36q18 0 35.5 21.5t21.5 49.5h129q-16 -90 -69.5 -148.5t-143.5 -58.5q-59 0 -141 37q-98 41 -116.5 41 t-36 -20.5t-21.5 -48.5h-131zM461 584h305l-154 436z" />
<glyph unicode="&#xc4;" horiz-adv-x="1302" d="M6 0v100h166l438 1227h142l442 -1227h147v-100h-550v100h143l-137 377h-373l-131 -377h151v-100h-438zM354 1507q0 53 37 90t90 37q55 0 91 -36.5t36 -90t-35.5 -89.5t-91.5 -36q-53 0 -90 37t-37 88zM461 584h305l-154 436zM723 1507.5q0 53.5 37 90t90 36.5t90 -36.5 t37 -90.5q0 -51 -37 -88t-90 -37t-90 36t-37 89.5z" />
<glyph unicode="&#xc5;" horiz-adv-x="1302" d="M6 0v100h166l438 1227h142l442 -1227h147v-100h-550v100h143l-137 377h-373l-131 -377h151v-100h-438zM461 584h305l-154 436zM485 1579q0 76 54.5 128t128.5 52q78 0 133 -52t55 -128q0 -80 -54 -133t-134 -53q-76 0 -129.5 53t-53.5 133zM582 1579q0 -41 23.5 -69.5 t62.5 -28.5t65.5 29.5t26.5 68.5q0 35 -26.5 63.5t-65.5 28.5t-62.5 -27.5t-23.5 -64.5z" />
<glyph unicode="&#xc6;" horiz-adv-x="1769" d="M-2 0v100h168l522 1131h-127v96h1143v-373h-123l-108 277h-402v-471h219v139h131v-389h-131v141h-219v-551h418l106 273h123v-373h-1065v100h172v375h-348l-178 -375h158v-100h-459zM522 584h303l4 647h-20z" />
<glyph unicode="&#xc7;" horiz-adv-x="1148" d="M59 604q0 141 35 269t104.5 236t188.5 172.5t272 64.5q258 0 426 -172v-224h-157q-16 152 -97 228.5t-172 76.5q-123 0 -201.5 -70.5t-110.5 -177t-32 -247.5q0 -172 35 -320.5t115 -251t194 -102.5q195 0 322 154l88 -76q-154 -186 -410 -187q-160 0 -280.5 55.5 t-188 148.5t-99.5 198.5t-32 224.5zM354 -291l232 205h145l-223 -354z" />
<glyph unicode="&#xc8;" horiz-adv-x="1138" d="M23 0v100h174v1131h-174v96h1054v-373h-127l-104 277h-404v-471h215v139h123v-389h-123v141h-215v-551h422l103 273h127v-373h-1071zM379 1593l143 148l328 -342h-158z" />
<glyph unicode="&#xc9;" horiz-adv-x="1138" d="M23 0v100h174v1131h-174v96h1054v-373h-127l-104 277h-404v-471h215v139h123v-389h-123v141h-215v-551h422l103 273h127v-373h-1071zM358 1399l328 342l143 -148l-313 -194h-158z" />
<glyph unicode="&#xca;" horiz-adv-x="1138" d="M23 0v100h174v1131h-174v96h1054v-373h-127l-104 277h-404v-471h215v139h123v-389h-123v141h-215v-551h422l103 273h127v-373h-1071zM250 1399l344 350l342 -350h-156l-188 119q-39 -18 -94 -58q-39 -31 -99 -61h-149z" />
<glyph unicode="&#xcb;" horiz-adv-x="1138" d="M23 0v100h174v1131h-174v96h1054v-373h-127l-104 277h-404v-471h215v139h123v-389h-123v141h-215v-551h422l103 273h127v-373h-1071zM293 1507q0 53 37 90t90 37q55 0 91 -36.5t36 -90t-36 -89.5t-91 -36q-53 0 -90 37t-37 88zM662 1507.5q0 53.5 36.5 90t90 36.5 t90 -36.5t36.5 -90.5q0 -51 -36.5 -88t-90 -37t-90 36t-36.5 89.5z" />
<glyph unicode="&#xcc;" horiz-adv-x="727" d="M39 0v100h197v1131h-197v96h645v-96h-203v-1131h203v-100h-645zM133 1587l143 148l328 -342h-158z" />
<glyph unicode="&#xcd;" horiz-adv-x="696" d="M25 0v100h196v1131h-196v96h645v-96h-203v-1131h203v-100h-645zM96 1393l328 342l143 -148l-313 -194h-158z" />
<glyph unicode="&#xce;" horiz-adv-x="708" d="M10 1397l344 350l342 -350h-155l-189 119q-39 -16 -94 -58q-41 -31 -98 -61h-150zM35 0v100h196v1131h-196v96h645v-96h-203v-1131h203v-100h-645z" />
<glyph unicode="&#xcf;" horiz-adv-x="716" d="M41 0v100h197v1131h-197v96h645v-96h-203v-1131h203v-100h-645zM45 1505q0 53 37 90t90 37q55 0 91 -36.5t36 -90t-36 -89.5t-91 -36q-53 0 -90 37t-37 88zM414 1505.5q0 53.5 36.5 90t90 36.5t90.5 -36.5t37 -90.5q0 -51 -37 -88t-90.5 -37t-90 36t-36.5 89.5z" />
<glyph unicode="&#xd0;" horiz-adv-x="1359" d="M35 631v104h174v496h-172v96h659q309 0 453.5 -182t144.5 -467q0 -127 -33.5 -243t-101 -216t-187.5 -159.5t-276 -59.5h-659v100h172v531h-174zM459 100h237q123 0 203 88t108.5 211t28.5 281q0 250 -84 400.5t-256 150.5h-237v-496h233v-104h-233v-531z" />
<glyph unicode="&#xd1;" horiz-adv-x="1310" d="M45 0v100h160v1129h-156v98h363l579 -907v809h-157v98h442v-98h-168v-1229h-152l-639 1008v-908h168v-100h-440zM326 1393q20 88 77.5 145t147.5 57q72 0 145 -39q88 -37 103 -36q18 0 35.5 21.5t21.5 49.5h129q-16 -90 -69.5 -148.5t-143.5 -58.5q-59 0 -141 37 q-98 41 -116.5 41t-36 -20.5t-21.5 -48.5h-131z" />
<glyph unicode="&#xd2;" d="M63 604q0 141 35 269t103.5 236t187.5 172.5t270 64.5q158 0 278 -54.5t187.5 -146.5t100 -197.5t32.5 -224.5q0 -139 -34.5 -268t-103 -237.5t-187.5 -174.5t-273 -66q-160 0 -279.5 55.5t-186 148.5t-98.5 198.5t-32 224.5zM317 760q0 -127 19.5 -247t59.5 -220 t108.5 -161.5t154.5 -61.5q182 0 264.5 138t82.5 367q0 172 -35 322t-117 254t-197 104q-178 0 -259 -138t-81 -357zM422 1593l143 148l328 -342h-158z" />
<glyph unicode="&#xd3;" d="M63 604q0 141 35 269t103.5 236t187.5 172.5t270 64.5q158 0 278 -54.5t187.5 -146.5t100 -197.5t32.5 -224.5q0 -139 -34.5 -268t-103 -237.5t-187.5 -174.5t-273 -66q-160 0 -279.5 55.5t-186 148.5t-98.5 198.5t-32 224.5zM317 760q0 -127 19.5 -247t59.5 -220 t108.5 -161.5t154.5 -61.5q182 0 264.5 138t82.5 367q0 172 -35 322t-117 254t-197 104q-178 0 -259 -138t-81 -357zM393 1399l328 342l143 -148l-313 -194h-158z" />
<glyph unicode="&#xd4;" d="M63 604q0 141 35 269t103.5 236t187.5 172.5t270 64.5q158 0 278 -54.5t187.5 -146.5t100 -197.5t32.5 -224.5q0 -139 -34.5 -268t-103 -237.5t-187.5 -174.5t-273 -66q-160 0 -279.5 55.5t-186 148.5t-98.5 198.5t-32 224.5zM303 1399l344 350l342 -350h-155l-189 119 q-39 -18 -94 -58q-39 -31 -98 -61h-150zM317 760q0 -127 19.5 -247t59.5 -220t108.5 -161.5t154.5 -61.5q182 0 264.5 138t82.5 367q0 172 -35 322t-117 254t-197 104q-178 0 -259 -138t-81 -357z" />
<glyph unicode="&#xd5;" d="M63 604q0 141 35 269t103.5 236t187.5 172.5t270 64.5q158 0 278 -54.5t187.5 -146.5t100 -197.5t32.5 -224.5q0 -139 -34.5 -268t-103 -237.5t-187.5 -174.5t-273 -66q-160 0 -279.5 55.5t-186 148.5t-98.5 198.5t-32 224.5zM317 760q0 -127 19.5 -247t59.5 -220 t108.5 -161.5t154.5 -61.5q182 0 264.5 138t82.5 367q0 172 -35 322t-117 254t-197 104q-178 0 -259 -138t-81 -357zM330 1391q20 88 77.5 145t147.5 57q72 0 145 -39q88 -37 103 -36q18 0 35.5 21.5t21.5 49.5h129q-16 -90 -69.5 -148.5t-143.5 -58.5q-59 0 -141 37 q-98 41 -116.5 41t-36 -20.5t-21.5 -48.5h-131z" />
<glyph unicode="&#xd6;" d="M63 604q0 141 35 269t103.5 236t187.5 172.5t270 64.5q158 0 278 -54.5t187.5 -146.5t100 -197.5t32.5 -224.5q0 -139 -34.5 -268t-103 -237.5t-187.5 -174.5t-273 -66q-160 0 -279.5 55.5t-186 148.5t-98.5 198.5t-32 224.5zM317 760q0 -127 19.5 -247t59.5 -220 t108.5 -161.5t154.5 -61.5q182 0 264.5 138t82.5 367q0 172 -35 322t-117 254t-197 104q-178 0 -259 -138t-81 -357zM350 1503q0 53 37 90t90 37q55 0 91 -37t36 -90t-36 -89t-91 -36q-53 0 -90 37t-37 88zM719 1503q0 53 37 90t90 37t90 -37t37 -90q0 -51 -37 -88t-90 -37 t-90 36t-37 89z" />
<glyph unicode="&#xd7;" horiz-adv-x="823" d="M63 207l259 252l-259 254l91 84l254 -252l256 256l90 -84l-258 -256l260 -256l-94 -88l-252 254l-256 -252z" />
<glyph unicode="&#xd8;" d="M63 604q0 141 35 269t103.5 236t187.5 172.5t270 64.5q197 0 340 -91l91 123h176l-154 -217q145 -178 145 -438q0 -139 -34.5 -268t-103 -237.5t-187.5 -174.5t-273 -66q-190 0 -333 82l-78 -112h-178l145 207q-152 178 -152 450zM317 760q0 -221 54 -393l518 733 q-92 156 -230 155q-123 0 -201.5 -70.5t-109.5 -177t-31 -247.5zM438 217q98 -147 221 -147q182 0 264.5 138t82.5 367q0 203 -50 369z" />
<glyph unicode="&#xd9;" horiz-adv-x="1300" d="M23 1231v96h565v-96h-160v-844q0 -143 63.5 -221t188.5 -78q119 0 215 68.5t96 208.5v866h-170v96h455v-96h-162v-864q0 -176 -121 -283t-331 -107q-225 0 -352.5 119t-127.5 340v795h-159zM457 1591l143 148l328 -342h-158z" />
<glyph unicode="&#xda;" horiz-adv-x="1300" d="M23 1231v96h565v-96h-160v-844q0 -143 63.5 -221t188.5 -78q119 0 215 68.5t96 208.5v866h-170v96h455v-96h-162v-864q0 -176 -121 -283t-331 -107q-225 0 -352.5 119t-127.5 340v795h-159zM430 1397l328 342l143 -148l-313 -194h-158z" />
<glyph unicode="&#xdb;" horiz-adv-x="1300" d="M23 1231v96h565v-96h-160v-844q0 -143 63.5 -221t188.5 -78q119 0 215 68.5t96 208.5v866h-170v96h455v-96h-162v-864q0 -176 -121 -283t-331 -107q-225 0 -352.5 119t-127.5 340v795h-159zM324 1399l344 350l342 -350h-156l-188 119q-39 -18 -95 -58q-39 -31 -98 -61 h-149z" />
<glyph unicode="&#xdc;" horiz-adv-x="1300" d="M23 1231v96h565v-96h-160v-844q0 -143 63.5 -221t188.5 -78q119 0 215 68.5t96 208.5v866h-170v96h455v-96h-162v-864q0 -176 -121 -283t-331 -107q-225 0 -352.5 119t-127.5 340v795h-159zM360 1507q0 53 37 90t90 37q55 0 91 -36.5t36 -90t-35.5 -89.5t-91.5 -36 q-53 0 -90 37t-37 88zM729 1507.5q0 53.5 37 90t90 36.5t90 -36.5t37 -90.5q0 -51 -37 -88t-90 -37t-90 36t-37 89.5z" />
<glyph unicode="&#xdd;" horiz-adv-x="1224" d="M-8 1231v96h579v-96h-147l246 -510l262 510h-172v96h471v-96h-180l-316 -621v-510h199v-100h-639v100h197v461l-330 670h-170zM375 1415l327 342l144 -147l-314 -195h-157z" />
<glyph unicode="&#xde;" horiz-adv-x="1153" d="M33 0v100h157v1131h-157v96h563v-96h-158v-172h209q211 0 319.5 -99.5t108.5 -252.5q0 -158 -116.5 -264.5t-311.5 -106.5h-209v-236h158v-100h-563zM438 440h187q78 0 131 76t53 186q0 117 -51 190t-133 73h-187v-525z" />
<glyph unicode="&#xdf;" horiz-adv-x="1054" d="M27 0v88h123v889q0 154 94 250t260 96q188 0 277 -89t89 -206q0 -51 -32.5 -101t-63.5 -78t-98 -79q-45 -31 -45 -80q0 -35 55 -74l197 -139q139 -98 139 -235q0 -109 -99.5 -185.5t-250.5 -76.5q-123 0 -244 88l61 71q31 -29 87.5 -51t95.5 -22q57 0 94 42t37 103 q0 74 -58 123l-157 117q-41 33 -61.5 53t-42 64t-21.5 98q0 86 96 176l46 46q13 13 29.5 51t16.5 85q0 92 -35.5 152.5t-113.5 60.5q-59 0 -95 -45t-36 -125v-1067h-344z" />
<glyph unicode="&#xe0;" horiz-adv-x="987" d="M68 219q0 147 227 225l301 105v74q0 117 -28.5 172t-100.5 55q-63 0 -98 -44t-29 -106l8 -79h-233q-6 92 43 167q84 147 319 148q350 0 350 -313v-486q0 -18 18.5 -29.5t37.5 -7.5l63 33l41 -76q-106 -80 -213 -80q-53 0 -97 23t-63 47q-96 -70 -221 -70 q-166 0 -245.5 56.5t-79.5 185.5zM225 1214l144 148l327 -342h-157zM311 219q0 -55 29 -96t82 -41q86 0 174 76v286l-186 -63q-99 -35 -99 -162z" />
<glyph unicode="&#xe1;" horiz-adv-x="987" d="M68 219q0 147 227 225l301 105v74q0 117 -28.5 172t-100.5 55q-63 0 -98 -44t-29 -106l8 -79h-233q-6 92 43 167q84 147 319 148q350 0 350 -313v-486q0 -18 18.5 -29.5t37.5 -7.5l63 33l41 -76q-106 -80 -213 -80q-53 0 -97 23t-63 47q-96 -70 -221 -70 q-166 0 -245.5 56.5t-79.5 185.5zM244 1020l327 342l144 -148l-314 -194h-157zM311 219q0 -55 29 -96t82 -41q86 0 174 76v286l-186 -63q-99 -35 -99 -162z" />
<glyph unicode="&#xe2;" horiz-adv-x="987" d="M68 219q0 147 227 225l301 105v74q0 117 -28.5 172t-100.5 55q-63 0 -98 -44t-29 -106l8 -79h-233q-6 92 43 167q84 147 319 148q350 0 350 -313v-486q0 -18 18.5 -29.5t37.5 -7.5l63 33l41 -76q-106 -80 -213 -80q-53 0 -97 23t-63 47q-96 -70 -221 -70 q-166 0 -245.5 56.5t-79.5 185.5zM129 1036l344 350l342 -350h-156l-188 119q-39 -16 -94 -57q-41 -31 -98 -62h-150zM311 219q0 -55 29 -96t82 -41q86 0 174 76v286l-186 -63q-99 -35 -99 -162z" />
<glyph unicode="&#xe3;" horiz-adv-x="987" d="M68 219q0 147 227 225l301 105v74q0 117 -28.5 172t-100.5 55q-63 0 -98 -44t-29 -106l8 -79h-233q-6 92 43 167q84 147 319 148q350 0 350 -313v-486q0 -18 18.5 -29.5t37.5 -7.5l63 33l41 -76q-106 -80 -213 -80q-53 0 -97 23t-63 47q-96 -70 -221 -70 q-166 0 -245.5 56.5t-79.5 185.5zM160 1087q20 88 77.5 145.5t147.5 57.5q72 0 145 -39q88 -37 103 -37q18 0 35.5 21.5t21.5 50.5h129q-16 -90 -69.5 -148.5t-143.5 -58.5q-59 0 -141 37q-98 41 -116.5 41t-36 -20.5t-21.5 -49.5h-131zM311 219q0 -55 29 -96t82 -41 q86 0 174 76v286l-186 -63q-99 -35 -99 -162z" />
<glyph unicode="&#xe4;" horiz-adv-x="987" d="M68 219q0 147 227 225l301 105v74q0 117 -28.5 172t-100.5 55q-63 0 -98 -44t-29 -106l8 -79h-233q-6 92 43 167q84 147 319 148q350 0 350 -313v-486q0 -18 18.5 -29.5t37.5 -7.5l63 33l41 -76q-106 -80 -213 -80q-53 0 -97 23t-63 47q-96 -70 -221 -70 q-166 0 -245.5 56.5t-79.5 185.5zM160 1192q0 53 36.5 90t90.5 37q55 0 91 -37t36 -90t-36 -89t-91 -36q-53 0 -90 37t-37 88zM311 219q0 -55 29 -96t82 -41q86 0 174 76v286l-186 -63q-99 -35 -99 -162zM528 1192q0 53 37 90t90.5 37t90 -37t36.5 -90q0 -51 -36.5 -88 t-90 -37t-90.5 36t-37 89z" />
<glyph unicode="&#xe5;" horiz-adv-x="987" d="M68 219q0 147 227 225l301 105v74q0 117 -28.5 172t-100.5 55q-63 0 -98 -44t-29 -106l8 -79h-233q-6 92 43 167q84 147 319 148q350 0 350 -313v-486q0 -18 18.5 -29.5t37.5 -7.5l63 33l41 -76q-106 -80 -213 -80q-53 0 -97 23t-63 47q-96 -70 -221 -70 q-166 0 -245.5 56.5t-79.5 185.5zM297 1217q0 76 54.5 128t127.5 52q78 0 133.5 -52.5t55.5 -127.5q0 -80 -54.5 -133.5t-134.5 -53.5q-76 0 -129 53.5t-53 133.5zM311 219q0 -55 29 -96t82 -41q86 0 174 76v286l-186 -63q-99 -35 -99 -162zM393 1217q0 -41 23.5 -70 t62.5 -29t65.5 30t26.5 69q0 35 -26.5 63.5t-65.5 28.5t-62.5 -27.5t-23.5 -64.5z" />
<glyph unicode="&#xe6;" horiz-adv-x="1497" d="M63 231q0 164 226 236l307 94v57q0 121 -26.5 179.5t-98.5 58.5q-63 0 -100 -47t-29 -109l10 -79h-231q-6 90 41 167q84 147 315 148q178 0 275 -90q98 90 280 90q203 0 301.5 -121t98.5 -338h-598q4 -154 63 -271.5t160 -117.5q68 0 131 46t98 114l98 -66 q-111 -205 -354 -205q-195 0 -315 111q-119 -111 -305 -111q-150 0 -248.5 64.5t-98.5 189.5zM305 233q0 -57 41 -106t98 -49q55 0 111.5 29.5t89.5 76.5q-49 115 -49 234v41l-193 -58q-98 -31 -98 -168zM844 571h334q0 117 -37 197t-109 80q-174 -1 -188 -277z" />
<glyph unicode="&#xe7;" horiz-adv-x="927" d="M78 414q0 133 41 247.5t141 194.5t244 80q174 0 252 -66.5t114 -183.5h-219q-27 158 -145 158q-190 0 -191 -326q0 -182 57.5 -306t172.5 -124q150 0 227 162l94 -29q-43 -113 -135 -178.5t-221 -65.5q-219 0 -325.5 129.5t-106.5 307.5zM213 -291l231 205h146l-223 -354 z" />
<glyph unicode="&#xe8;" horiz-adv-x="978" d="M78 418q0 213 109.5 365.5t318.5 152.5q211 0 311.5 -121t100.5 -338h-601q6 -158 65.5 -273.5t168.5 -115.5q90 0 140 44t91 122l105 -31q-57 -117 -137 -181.5t-232 -64.5q-225 0 -332.5 130.5t-107.5 310.5zM246 1214l143 148l328 -342h-158zM317 571h334 q0 117 -36.5 197t-108.5 80q-88 0 -134.5 -77t-54.5 -200z" />
<glyph unicode="&#xe9;" horiz-adv-x="978" d="M78 418q0 213 109.5 365.5t318.5 152.5q211 0 311.5 -121t100.5 -338h-601q6 -158 65.5 -273.5t168.5 -115.5q90 0 140 44t91 122l105 -31q-57 -117 -137 -181.5t-232 -64.5q-225 0 -332.5 130.5t-107.5 310.5zM291 1020l327 342l144 -148l-313 -194h-158zM317 571h334 q0 117 -36.5 197t-108.5 80q-88 0 -134.5 -77t-54.5 -200z" />
<glyph unicode="&#xea;" horiz-adv-x="978" d="M78 418q0 213 109.5 365.5t318.5 152.5q211 0 311.5 -121t100.5 -338h-601q6 -158 65.5 -273.5t168.5 -115.5q90 0 140 44t91 122l105 -31q-57 -117 -137 -181.5t-232 -64.5q-225 0 -332.5 130.5t-107.5 310.5zM152 1036l344 350l342 -350h-156l-188 119q-39 -16 -95 -57 q-39 -31 -98 -62h-149zM317 571h334q0 117 -36.5 197t-108.5 80q-88 0 -134.5 -77t-54.5 -200z" />
<glyph unicode="&#xeb;" horiz-adv-x="978" d="M78 418q0 213 109.5 365.5t318.5 152.5q211 0 311.5 -121t100.5 -338h-601q6 -158 65.5 -273.5t168.5 -115.5q90 0 140 44t91 122l105 -31q-57 -117 -137 -181.5t-232 -64.5q-225 0 -332.5 130.5t-107.5 310.5zM197 1192q0 53 36.5 90t90.5 37q55 0 91 -37t36 -90 t-36 -89t-91 -36q-53 0 -90 37t-37 88zM317 571h334q0 117 -36.5 197t-108.5 80q-88 0 -134.5 -77t-54.5 -200zM565 1192q0 53 37 90t90 37t90 -37t37 -90q0 -51 -37 -88t-90 -37t-90 36t-37 89z" />
<glyph unicode="&#xec;" horiz-adv-x="595" d="M-12 1214l143 148l328 -342h-158zM25 0v90h157v739h-141v84l371 23v-846h157v-90h-544z" />
<glyph unicode="&#xed;" horiz-adv-x="595" d="M25 0v90h157v739h-141v84l371 23v-846h157v-90h-544zM61 1020l328 342l143 -148l-313 -194h-158z" />
<glyph unicode="&#xee;" horiz-adv-x="600" d="M-43 1036l344 350l342 -350h-156l-188 119q-39 -16 -94 -57q-41 -31 -99 -62h-149zM29 0v90h157v739h-141v84l371 23v-846h157v-90h-544z" />
<glyph unicode="&#xef;" horiz-adv-x="655" d="M16 1192q0 53 37 90t90 37q55 0 91 -37t36 -90t-35.5 -89t-91.5 -36q-53 0 -90 37t-37 88zM59 0v90h158v739h-141v84l370 23v-846h158v-90h-545zM385 1192q0 53 37 90t90 37t90 -37t37 -90q0 -51 -37 -88t-90 -37t-90 36t-37 89z" />
<glyph unicode="&#xf0;" horiz-adv-x="1015" d="M76 416q0 213 108.5 366.5t319.5 153.5q125 0 211 -102q-33 193 -156 311l-227 -125l-39 72l199 106q-141 90 -340 90v86q23 2 69 2q219 0 391 -114q25 12 99.5 55t115.5 63l37 -69l-186 -103q256 -233 256 -694q0 -131 -45 -250t-146.5 -203t-238.5 -84q-117 0 -203 38 t-133 103.5t-69.5 139.5t-22.5 158zM315 524q0 -182 48.5 -320t140.5 -138q190 0 190 329q0 117 -19.5 216.5t-63.5 168t-107 68.5q-98 0 -143.5 -91.5t-45.5 -232.5z" />
<glyph unicode="&#xf1;" horiz-adv-x="1097" d="M41 0v88h127v739h-127v84l354 27v-74q80 74 209 74q195 0 266.5 -86t71.5 -234v-530h125v-88h-481v88h127v530q0 221 -138 222q-76 0 -128 -54.5t-52 -164.5v-533h123v-88h-477zM215 1087q20 88 77.5 145.5t147.5 57.5q72 0 146 -39q88 -37 102 -37q18 0 35.5 21.5 t21.5 50.5h129q-16 -90 -69 -148.5t-143 -58.5q-59 0 -142 37q-98 41 -116.5 41t-36 -20.5t-21.5 -49.5h-131z" />
<glyph unicode="&#xf2;" horiz-adv-x="1011" d="M78 416q0 213 108.5 366.5t319.5 153.5q219 0 324.5 -129t105.5 -307q0 -205 -113.5 -364t-316.5 -159q-117 0 -203 38t-133 103.5t-69.5 139.5t-22.5 158zM270 1214l144 148l327 -342h-157zM317 524q0 -182 48.5 -320t140.5 -138q190 0 190 329q0 117 -19.5 216.5 t-63.5 168t-107 68.5q-98 0 -143.5 -91.5t-45.5 -232.5z" />
<glyph unicode="&#xf3;" horiz-adv-x="1011" d="M78 416q0 213 108.5 366.5t319.5 153.5q219 0 324.5 -129t105.5 -307q0 -205 -113.5 -364t-316.5 -159q-117 0 -203 38t-133 103.5t-69.5 139.5t-22.5 158zM276 1020l328 342l144 -148l-314 -194h-158zM317 524q0 -182 48.5 -320t140.5 -138q190 0 190 329 q0 117 -19.5 216.5t-63.5 168t-107 68.5q-98 0 -143.5 -91.5t-45.5 -232.5z" />
<glyph unicode="&#xf4;" horiz-adv-x="1011" d="M78 416q0 213 108.5 366.5t319.5 153.5q219 0 324.5 -129t105.5 -307q0 -205 -113.5 -364t-316.5 -159q-117 0 -203 38t-133 103.5t-69.5 139.5t-22.5 158zM158 1036l344 350l342 -350h-156l-188 119q-39 -16 -94 -57q-41 -31 -99 -62h-149zM317 524q0 -182 48.5 -320 t140.5 -138q190 0 190 329q0 117 -19.5 216.5t-63.5 168t-107 68.5q-98 0 -143.5 -91.5t-45.5 -232.5z" />
<glyph unicode="&#xf5;" horiz-adv-x="1011" d="M78 416q0 213 108.5 366.5t319.5 153.5q219 0 324.5 -129t105.5 -307q0 -205 -113.5 -364t-316.5 -159q-117 0 -203 38t-133 103.5t-69.5 139.5t-22.5 158zM170 1087q20 88 77.5 145.5t147.5 57.5q72 0 146 -39q88 -37 102 -37q18 0 35.5 21.5t21.5 50.5h129 q-16 -90 -69 -148.5t-144 -58.5q-59 0 -141 37q-98 41 -116.5 41t-36 -20.5t-21.5 -49.5h-131zM317 524q0 -182 48.5 -320t140.5 -138q190 0 190 329q0 117 -19.5 216.5t-63.5 168t-107 68.5q-98 0 -143.5 -91.5t-45.5 -232.5z" />
<glyph unicode="&#xf6;" horiz-adv-x="1011" d="M78 416q0 213 108.5 366.5t319.5 153.5q219 0 324.5 -129t105.5 -307q0 -205 -113.5 -364t-316.5 -159q-117 0 -203 38t-133 103.5t-69.5 139.5t-22.5 158zM190 1192q0 53 37 90t90 37q55 0 91 -37t36 -90t-35.5 -89t-91.5 -36q-53 0 -90 37t-37 88zM317 524 q0 -182 48.5 -320t140.5 -138q190 0 190 329q0 117 -19.5 216.5t-63.5 168t-107 68.5q-98 0 -143.5 -91.5t-45.5 -232.5zM559 1192q0 53 37 90t90 37t90 -37t37 -90q0 -51 -37 -88t-90 -37t-90 36t-37 89z" />
<glyph unicode="&#xf7;" horiz-adv-x="1007" d="M82 399v115h842v-115h-842zM352 109q0 61 38 99t97 38q61 0 100.5 -38t39.5 -99q0 -59 -39 -98.5t-101 -39.5q-57 0 -96 39.5t-39 98.5zM352 788q0 61 38 100.5t97 39.5q61 0 100.5 -38t39.5 -102q0 -59 -39 -98t-101 -39q-57 0 -96 39t-39 98z" />
<glyph unicode="&#xf8;" horiz-adv-x="1015" d="M72 -162l137 238q-131 129 -131 340q0 213 108.5 366.5t319.5 153.5q94 0 176 -31l94 166h160l-135 -235q133 -119 133 -336q0 -205 -112.5 -364t-315.5 -159q-88 0 -178 29l-95 -168h-161zM317 524q0 -133 21 -223l274 481q-49 66 -106 66q-98 0 -143.5 -91.5 t-45.5 -232.5zM401 133q43 -68 105 -67q190 0 190 329q0 119 -20 221z" />
<glyph unicode="&#xf9;" horiz-adv-x="1107" d="M31 827v88h354v-618q0 -221 133 -221q78 0 131 54t53 167v530h-124v88h352v-827h127v-84l-355 -27v70q-72 -70 -210 -70q-195 0 -265.5 86.5t-70.5 233.5v530h-125zM285 1214l143 148l328 -342h-158z" />
<glyph unicode="&#xfa;" horiz-adv-x="1107" d="M31 827v88h354v-618q0 -221 133 -221q78 0 131 54t53 167v530h-124v88h352v-827h127v-84l-355 -27v70q-72 -70 -210 -70q-195 0 -265.5 86.5t-70.5 233.5v530h-125zM262 1020l328 342l143 -148l-313 -194h-158z" />
<glyph unicode="&#xfb;" horiz-adv-x="1107" d="M31 827v88h354v-618q0 -221 133 -221q78 0 131 54t53 167v530h-124v88h352v-827h127v-84l-355 -27v70q-72 -70 -210 -70q-195 0 -265.5 86.5t-70.5 233.5v530h-125zM176 1036l344 350l342 -350h-155l-189 119q-39 -16 -94 -57q-39 -31 -98 -62h-150z" />
<glyph unicode="&#xfc;" horiz-adv-x="1118" d="M41 827v88h354v-618q0 -221 133 -221q78 0 131.5 54t53.5 167v530h-125v88h352v-827h127v-84l-354 -27v70q-72 -70 -211 -70q-195 0 -265.5 86.5t-70.5 233.5v530h-125zM219 1192q0 53 37 90t90 37q55 0 91 -37t36 -90t-36 -89t-91 -36q-53 0 -90 37t-37 88zM588 1192 q0 53 37 90t90 37t90 -37t37 -90q0 -51 -37 -88t-90 -37t-90 36t-37 89z" />
<glyph unicode="&#xfd;" horiz-adv-x="997" d="M-27 827v88h494v-88h-129l217 -536l201 536h-135v88h389v-88h-131l-400 -1056q-80 -213 -254 -213q-106 0 -221 100l74 84q86 -80 147 -80q88 0 131 109l84 213l-348 843h-119zM262 1020l328 342l143 -148l-313 -194h-158z" />
<glyph unicode="&#xfe;" horiz-adv-x="1079" d="M-10 -334h143v1637h-139v81l368 25v-539q88 66 197 66q221 0 328.5 -123t107.5 -311q0 -129 -43 -246t-143 -199t-238 -82q-117 0 -209 72v-381h140v-86h-512v86zM362 287q0 -96 61.5 -151.5t145.5 -55.5q190 0 191 319q0 188 -50.5 311.5t-150.5 123.5q-80 0 -137 -50.5 t-60 -154.5v-342z" />
<glyph unicode="&#xff;" horiz-adv-x="1001" d="M-43 827v88h494v-88h-129l217 -536l200 536h-135v88h389v-88h-131l-399 -1056q-80 -213 -254 -213q-106 0 -221 100l73 84q86 -80 148 -80q88 0 131 109l84 213l-348 843h-119zM174 1192q0 53 37 90t90 37q55 0 91 -37t36 -90t-36 -89t-91 -36q-53 0 -90 37t-37 88z M543 1192q0 53 36.5 90t90 37t90.5 -37t37 -90q0 -51 -37 -88t-90.5 -37t-90 36t-36.5 89z" />
<glyph unicode="&#x152;" horiz-adv-x="1873" d="M70 606q0 156 32.5 285t100 233.5t185.5 164t278 59.5q88 0 178 -21h964v-373h-125l-106 277h-401v-471h219v139h116v-389h-116v141h-219v-551h417l111 273h121v-373h-994q-72 -20 -165 -20q-162 0 -282 55t-185.5 148t-97 198.5t-31.5 224.5zM324 762 q-2 -174 31.5 -325.5t114.5 -258t196 -106.5q197 0 264 139v813q-37 104 -96.5 168.5t-169.5 64.5q-180 0 -260 -137t-80 -358z" />
<glyph unicode="&#x153;" horiz-adv-x="1609" d="M84 418q0 209 111.5 364.5t316.5 155.5q193 0 322 -121q123 119 299 119q209 0 310 -121t101 -338h-600q4 -154 64.5 -271.5t156.5 -117.5q70 0 133.5 46t98.5 114l98 -66q-111 -205 -356 -205q-203 0 -328 125q-129 -125 -299 -125q-221 0 -324.5 130.5t-103.5 310.5z M322 526q-2 -182 48 -321t142 -139q188 0 188 331q0 186 -48 319.5t-140 133.5q-98 0 -144 -91.5t-46 -232.5zM944 571h336q0 117 -38 197t-109 80q-90 0 -136.5 -77t-52.5 -200z" />
<glyph unicode="&#x178;" horiz-adv-x="1224" d="M-8 1231v96h579v-96h-147l246 -510l262 510h-172v96h471v-96h-180l-316 -621v-510h199v-100h-639v100h197v461l-330 670h-170zM305 1503q0 53 37 90t90 37q55 0 91 -37t36 -90t-36 -89t-91 -36q-53 0 -90 37t-37 88zM674 1503q0 53 37 90t90 37t90 -37t37 -90 q0 -51 -37 -88t-90 -37t-90 36t-37 89z" />
<glyph unicode="&#x2c6;" horiz-adv-x="772" d="M43 1036l344 350l342 -350h-156l-188 119q-39 -16 -94 -57q-41 -31 -98 -62h-150z" />
<glyph unicode="&#x2dc;" horiz-adv-x="763" d="M51 1087q20 88 77.5 145.5t147.5 57.5q72 0 146 -39q88 -37 102 -37q18 0 36 21.5t22 50.5h129q-16 -90 -69.5 -148.5t-143.5 -58.5q-59 0 -142 37q-98 41 -116.5 41t-36 -20.5t-21.5 -49.5h-131z" />
<glyph unicode="&#x2013;" horiz-adv-x="843" d="M0 475v119h842v-119h-842z" />
<glyph unicode="&#x2014;" horiz-adv-x="1716" d="M61 475v119h1590v-119h-1590z" />
<glyph unicode="&#x2018;" horiz-adv-x="462" d="M98 1081q0 135 88 228q27 29 62 52t55 32l21 10l61 -62q-57 -33 -96 -75q-45 -45 -51 -97h8q49 0 86 -41t37 -90q0 -53 -38 -90t-91 -37q-59 0 -100.5 42t-41.5 128z" />
<glyph unicode="&#x2019;" horiz-adv-x="462" d="M82 983q57 33 96 76q45 45 51 96h-8q-49 0 -86 41t-37 90q0 53 38 90t91 37q59 0 100.5 -42t41.5 -128q0 -135 -88 -227q-27 -29 -62 -52.5t-55 -33.5l-21 -8z" />
<glyph unicode="&#x201a;" horiz-adv-x="462" d="M82 -190q57 33 96 75q45 45 51 97h-8q-49 0 -86 40.5t-37 90.5q0 53 38 90t91 37q59 0 100.5 -42t41.5 -128q0 -135 -88 -228q-27 -29 -62 -52t-55 -32l-21 -10z" />
<glyph unicode="&#x201c;" horiz-adv-x="780" d="M98 1081q0 135 88 228q27 29 62 52t55 32l21 10l61 -62q-57 -33 -96 -75q-45 -45 -51 -97h8q49 0 86 -41t37 -90q0 -53 -38 -90t-91 -37q-59 0 -100.5 42t-41.5 128zM410 1081q0 135 88 228q27 29 61.5 52t54.5 32l21 10l61 -62q-57 -33 -96 -75q-45 -45 -51 -97h8 q49 0 86 -41t37 -90q0 -53 -38 -90t-91 -37q-59 0 -100 42t-41 128z" />
<glyph unicode="&#x201d;" horiz-adv-x="780" d="M82 983q57 33 96 76q45 45 51 96h-8q-49 0 -86 41t-37 90q0 53 38 90t91 37q59 0 100.5 -42t41.5 -128q0 -135 -88 -227q-27 -29 -62 -52.5t-55 -33.5l-21 -8zM393 983q57 33 96 76q45 45 52 96h-9q-49 0 -85.5 41t-36.5 90q0 53 37.5 90t91.5 37q59 0 100 -42t41 -128 q0 -135 -88 -227q-27 -29 -61.5 -52.5t-55.5 -33.5l-20 -8z" />
<glyph unicode="&#x201e;" horiz-adv-x="780" d="M82 -190q57 33 96 75q45 45 51 97h-8q-49 0 -86 40.5t-37 90.5q0 53 38 90t91 37q59 0 100.5 -42t41.5 -128q0 -135 -88 -228q-27 -29 -62 -52t-55 -32l-21 -10zM393 -190q57 33 96 75q45 45 52 97h-9q-49 0 -85.5 40.5t-36.5 90.5q0 53 37.5 90t91.5 37q59 0 100 -42 t41 -128q0 -135 -88 -228q-27 -29 -61.5 -52t-55.5 -32l-20 -10z" />
<glyph unicode="&#x2022;" horiz-adv-x="514" d="M94 604q0 72 49.5 122t124.5 50q72 0 121 -50t49 -122q0 -76 -48 -125t-122 -49q-76 0 -125 49t-49 125z" />
<glyph unicode="&#x2026;" horiz-adv-x="1368" d="M84 111q0 61 38 99t99 38q59 0 98 -38t39 -99q0 -59 -39.5 -99.5t-97.5 -40.5q-61 0 -99 40.5t-38 99.5zM539 111q0 61 38.5 99t100 38t100.5 -38t39 -99q0 -59 -39 -99.5t-100 -40.5q-59 0 -99 40.5t-40 99.5zM997 111q0 61 39 99t99 38q63 0 101 -38t38 -99 q0 -59 -39 -99.5t-100 -40.5q-57 0 -97.5 40.5t-40.5 99.5z" />
<glyph unicode="&#x2039;" horiz-adv-x="622" d="M47 473l442 416l76 -72l-262 -344l262 -344l-76 -72z" />
<glyph unicode="&#x203a;" horiz-adv-x="622" d="M55 127l264 346l-264 346l78 70l440 -416l-440 -416z" />
<glyph unicode="&#x20ac;" horiz-adv-x="1230" d="M-16 485v107h161v43q0 72 5 104h-166v105h182q55 223 200.5 362.5t374.5 139.5q281 0 428 -172v-224h-157q-14 154 -96 229.5t-177 75.5q-156 0 -237.5 -114.5t-98.5 -296.5h467v-105h-469q0 -96 7 -147h462v-107h-442q39 -176 119 -283.5t194 -107.5q188 0 322 150 l86 -76q-158 -188 -408 -188q-268 0 -413.5 143t-175.5 362h-168z" />
<glyph unicode="&#x2122;" horiz-adv-x="1163" d="M39 1155v162h430v-162h-70l-41 105h-49v-412h70v-55h-248v55h64v412h-43l-41 -105h-72zM504 793v55h61v412h-61v57h172l143 -356l133 356h170v-57h-57v-412h57v-55h-229v55h61v250l-110 -305h-82l-117 305v-250h55v-55h-196z" />
<glyph unicode="&#xe000;" horiz-adv-x="915" d="M0 915h915v-915h-915v915z" />
<glyph unicode="&#xfb01;" horiz-adv-x="1306" d="M39 0v88h141v739h-141v88h141v164q0 166 101.5 249t236.5 83q129 0 242 -96l-74 -74h-4q-92 72 -154 72q-121 0 -120 -197v-201h272v-88h-272v-739h190v-88h-559zM713 0v88h157v739h-143v84l373 25v-848h160v-88h-547zM844 1187.5q0 59.5 40 100.5t101.5 41t101 -41 t39.5 -100.5t-39.5 -100t-101 -40.5t-101.5 40.5t-40 100z" />
<glyph unicode="&#xfb02;" horiz-adv-x="1216" d="M39 0v88h141v739h-141v88h141v164q0 166 101.5 249t236.5 83q129 0 242 -96l-74 -74h-4q-92 72 -154 72q-121 0 -120 -197v-201h272v-88h-272v-739h190v-88h-559zM688 1303v81l371 25v-1321h127v-88h-484v88h127v1215h-141z" />
<glyph unicode="&#xfb03;" horiz-adv-x="2009" d="M1429 0v88h158v739h-144v84l373 25v-848h160v-88h-547zM1560 1187.5q0 59.5 40 100.5t101.5 41t101.5 -41t40 -100.5t-40 -100t-101.5 -40.5t-101.5 40.5t-40 100zM735 0v88h141v739h-141v88h141v164q0 166 101.5 249t236.5 83q129 0 242 -96l-74 -74h-4q-92 72 -154 72 q-121 0 -120 -197v-201h272v-88h-272v-739h190v-88h-559zM43 0v88h141v739h-141v88h141v164q0 166 101.5 249t236.5 83q129 0 242 -96l-74 -74h-4q-92 72 -154 72q-121 0 -120 -197v-201h272v-88h-272v-739h190v-88h-559z" />
<glyph unicode="&#xfb04;" horiz-adv-x="1939" d="M1409 1303v81l370 25v-1321h127v-88h-483v88h127v1215h-141zM735 0v88h141v739h-141v88h141v164q0 166 101.5 249t236.5 83q129 0 242 -96l-74 -74h-4q-92 72 -154 72q-121 0 -120 -197v-201h272v-88h-272v-739h190v-88h-559zM43 0v88h141v739h-141v88h141v164 q0 166 101.5 249t236.5 83q129 0 242 -96l-74 -74h-4q-92 72 -154 72q-121 0 -120 -197v-201h272v-88h-272v-739h190v-88h-559z" />
</font>
</defs>
</svg>
