<?xml version="1.0" standalone="no"?>
<!DOCTYPE svg PUBLIC "-//W3C//DTD SVG 1.1//EN" "http://www.w3.org/Graphics/SVG/1.1/DTD/svg11.dtd" >
<svg xmlns="http://www.w3.org/2000/svg">
<metadata>
This is a custom SVG webfont generated by Font Squirrel.
Copyright   : Copyright  by Binnenland 2006 All rights reserved This software may not be reproduced used displayed modified disclosed or transferred without the express written approval of Binnenland
Designer    : Binnenland Michael Mischler  Niklaus Thoenen
Foundry URL : wwwbinnenlandch
</metadata>
<defs>
<font id="CatalogProBold" horiz-adv-x="1327" >
<font-face units-per-em="2048" ascent="1536" descent="-512" />
<missing-glyph horiz-adv-x="573" />
<glyph unicode=" "  horiz-adv-x="573" />
<glyph unicode="&#x09;" horiz-adv-x="573" />
<glyph unicode="&#xa0;" horiz-adv-x="573" />
<glyph unicode="!" horiz-adv-x="499" d="M127 102.5q0 55.5 37 92t94 36.5t93 -36.5t36 -92t-37 -93.5t-92 -38q-57 0 -94 38t-37 93.5zM145 1337h228l-37 -915h-154z" />
<glyph unicode="&#x22;" horiz-adv-x="591" d="M109 997v433h198l-102 -433h-96zM352 1430h201l-104 -433h-95z" />
<glyph unicode="#" horiz-adv-x="1280" d="M68 436v101h268l96 303h-315v100h348l145 453h109l-148 -453h295l146 453h110l-145 -453h242v-100h-275l-100 -303h323v-101h-356l-158 -489h-104l158 489h-297l-156 -489h-111l160 489h-235zM440 537h297l99 303h-293z" />
<glyph unicode="$" horiz-adv-x="1003" d="M92 123v246h146q39 -311 272 -312q109 0 173.5 64.5t64.5 173.5q0 115 -80 170q-23 16 -111 73l-183 116l-112 71q-168 113 -168 303q0 133 98.5 222t266.5 104v157h102v-157q219 -12 346 -135v-248h-149q-16 174 -78 241.5t-168 67.5q-109 0 -162 -64.5t-53 -158.5 q0 -106 80 -158l395 -250q186 -121 186 -313q0 -145 -107.5 -243.5t-289.5 -112.5v-152h-102v152q-256 18 -367 143z" />
<glyph unicode="%" horiz-adv-x="1398" d="M57 985q0 168 81 260t200 92q121 0 202 -88t81 -264q0 -172 -82 -265t-201 -93t-200 91t-81 267zM227 985q0 -285 111 -285q113 0 113 285q0 281 -113 281q-111 0 -111 -281zM393 -53l522 1446h109l-518 -1446h-113zM813 354q0 170 82 263.5t199 93.5q121 0 202.5 -90.5 t81.5 -266.5q0 -170 -82 -262t-202 -92q-119 0 -200 91t-81 263zM985 354q0 -279 109 -278q115 0 114 278q0 285 -114 285q-109 0 -109 -285z" />
<glyph unicode="&#x26;" horiz-adv-x="1132" d="M102 375q0 127 75 224t185 126h-2q-158 96 -157 285q0 152 105.5 246t273.5 94q227 0 350 -129v-234h-123q-16 168 -70.5 228.5t-154.5 60.5q-90 0 -139.5 -67.5t-49.5 -168.5q-2 -125 46 -212t151 -87v-69h-33q-119 0 -176 -83t-57 -216q0 -158 68.5 -236t180.5 -78 q125 0 190.5 77t65.5 186q0 53 -24.5 112.5t-58.5 79.5h-125v70h467v-70h-111q57 -88 57 -182q0 -150 -122.5 -252.5t-338.5 -102.5q-199 0 -336 99.5t-137 298.5z" />
<glyph unicode="'" horiz-adv-x="346" d="M109 1430h202l-104 -433h-96z" />
<glyph unicode="(" horiz-adv-x="569" d="M137 633q0 524 377 774l49 -45q-102 -84 -167.5 -283.5t-65.5 -443.5q0 -242 65.5 -441.5t167.5 -285.5l-47 -39q-379 242 -379 764z" />
<glyph unicode=")" horiz-adv-x="569" d="M47 -92q102 86 169 286.5t67 440.5q0 244 -66.5 443.5t-169.5 283.5l51 45q375 -248 375 -774q0 -522 -377 -766z" />
<glyph unicode="*" horiz-adv-x="944" d="M72 799l321 139l-321 137l78 137l282 -215l-45 351h160l-47 -349l284 211l78 -135l-321 -137l321 -139l-76 -133l-286 211l47 -355h-160l45 357l-285 -215z" />
<glyph unicode="+" horiz-adv-x="1009" d="M90 485v97h369v372h100v-372h369v-97h-369v-370h-100v370h-369z" />
<glyph unicode="," horiz-adv-x="458" d="M96 -207q57 35 92 72q53 53 54 112h-17q-47 0 -81.5 38t-34.5 87q0 51 35.5 86t86.5 35q57 0 96.5 -40t39.5 -124q0 -133 -88 -225q-27 -29 -60 -51.5t-51 -32.5l-21 -8z" />
<glyph unicode="-" horiz-adv-x="622" d="M90 487v97h457v-97h-457z" />
<glyph unicode="." horiz-adv-x="446" d="M102 102.5q0 55.5 36 92t93.5 36.5t93 -36.5t35.5 -92t-36.5 -93.5t-92 -38t-92.5 38t-37 93.5z" />
<glyph unicode="/" horiz-adv-x="858" d="M57 -53l662 1446h106l-661 -1446h-107z" />
<glyph unicode="0" horiz-adv-x="1220" d="M115 571q0 352 148.5 538.5t377.5 186.5q203 0 342 -151.5t139 -435.5q0 -352 -148.5 -539.5t-377.5 -187.5q-221 0 -351 174.5t-130 414.5zM336 778q0 -121 12 -232.5t43 -228t96.5 -187.5t157.5 -71q256 0 256 451q0 127 -13.5 241.5t-45 226.5t-96 178.5t-152.5 66.5 q-258 -1 -258 -445z" />
<glyph unicode="1" horiz-adv-x="843" d="M117 1038l360 242h72v-1198h188v-80h-579v80h186v999l-180 -112z" />
<glyph unicode="2" horiz-adv-x="1024" d="M88 1075q143 227 391 228q170 0 300 -93.5t130 -265.5q0 -180 -272 -444l-309 -310h598v-188h-828v72l383 415q209 227 209 449q0 115 -59.5 186.5t-157.5 71.5q-92 0 -172 -46t-129 -126z" />
<glyph unicode="3" horiz-adv-x="1024" d="M84 147l72 68q102 -127 307 -127q106 0 181 66.5t75 212.5q0 125 -65.5 195.5t-174.5 70.5h-90v74q113 0 204 69.5t91 196.5q0 111 -56.5 167t-142.5 56q-184 0 -290 -162l-84 53q135 213 374 213q164 0 287 -88t123 -254q0 -80 -55.5 -157.5t-134.5 -118.5 q231 -78 231 -299q0 -188 -144.5 -294.5t-328.5 -106.5q-232 -1 -379 165z" />
<glyph unicode="4" horiz-adv-x="1157" d="M59 293v82l639 905h144v-842h223v-145h-223v-291h-205v291h-578zM209 438h428v594z" />
<glyph unicode="5" horiz-adv-x="1071" d="M98 147l72 68q106 -129 307 -129q111 0 183.5 78t72.5 239q0 119 -65.5 189t-173.5 70h-353l109 618h627v-188h-562l-49 -283h230q201 0 327.5 -97.5t126.5 -308.5q0 -199 -145.5 -311t-327.5 -112q-234 -1 -379 167z" />
<glyph unicode="6" horiz-adv-x="1132" d="M90 569q0 342 170 539t391 197q195 0 328 -152l-66 -63q-96 119 -260 118q-139 0 -224 -132t-99 -337q104 109 256 109q195 0 323.5 -111.5t128.5 -330.5q0 -180 -136 -302t-316 -122q-233 0 -364.5 174.5t-131.5 412.5zM322 567q2 -231 68.5 -369.5t197.5 -138.5 q98 0 165.5 98.5t67.5 245.5q0 174 -65.5 268.5t-169.5 94.5q-76 0 -152.5 -52.5t-111.5 -146.5z" />
<glyph unicode="7" horiz-adv-x="970" d="M63 930v350h873v-33l-578 -1245h-112l508 1092h-537l-63 -164h-91z" />
<glyph unicode="8" horiz-adv-x="1146" d="M117 356q0 123 71.5 209t186.5 119q-84 33 -147.5 113t-63.5 172q0 180 122 263t298 83t299 -83t123 -263q0 -92 -63.5 -172t-147.5 -113q113 -35 184.5 -122t71.5 -206q0 -195 -137.5 -292t-329.5 -97q-197 0 -332 97t-135 292zM340 354q0 -156 67.5 -233.5t176.5 -77.5 q111 0 178 78t67 233q0 129 -63.5 208t-181.5 79q-117 0 -180.5 -80t-63.5 -207zM371 969q0 -111 60.5 -181.5t152.5 -70.5q94 0 154.5 70.5t60.5 181.5q0 131 -59.5 201.5t-155.5 70.5q-94 0 -153.5 -70.5t-59.5 -201.5z" />
<glyph unicode="9" horiz-adv-x="1132" d="M90 874q0 180 136 302t317 122q233 0 364 -174t131 -413q0 -344 -160.5 -540t-381.5 -196q-195 0 -328 152l68 63q92 -117 258 -116q137 0 213.5 130t91.5 339q-102 -111 -256 -111q-195 0 -324 111.5t-129 330.5zM307 877q0 -174 65.5 -267.5t170.5 -93.5q76 0 152.5 51 t111.5 146q-2 233 -68.5 371.5t-197.5 138.5q-98 0 -166 -99.5t-68 -246.5z" />
<glyph unicode=":" horiz-adv-x="446" d="M102 102.5q0 55.5 36 92t93.5 36.5t93 -36.5t35.5 -92t-36.5 -93.5t-92 -38t-92.5 38t-37 93.5zM102 793q0 57 36 95t93.5 38t93 -38t35.5 -95q0 -55 -36.5 -92t-92 -37t-92.5 37t-37 92z" />
<glyph unicode=";" horiz-adv-x="458" d="M96 -207q57 35 92 72q53 53 54 112h-17q-47 0 -81.5 38t-34.5 87q0 51 35.5 86t86.5 35q57 0 96.5 -40t39.5 -124q0 -133 -88 -225q-27 -29 -60 -51.5t-51 -32.5l-21 -8zM109 793q0 57 35.5 95t93 38t93.5 -38t36 -95q0 -55 -37 -92t-92.5 -37t-92 37t-36.5 92z" />
<glyph unicode="&#x3c;" horiz-adv-x="1009" d="M90 483v101l838 331v-110l-697 -270l697 -275v-108z" />
<glyph unicode="=" horiz-adv-x="1009" d="M90 356v103h838v-103h-838zM90 614v101h838v-101h-838z" />
<glyph unicode="&#x3e;" horiz-adv-x="1009" d="M90 152v108l694 275l-694 270v110l838 -331v-101z" />
<glyph unicode="?" horiz-adv-x="970" d="M68 973v246q131 141 391 141q193 0 308.5 -93t115.5 -237q0 -66 -27 -124t-49.5 -83.5t-73.5 -77.5l-158 -155q-78 -74 -77 -168h-142q0 96 22.5 141t102.5 133l137 158q59 72 60 205q0 94 -53.5 157.5t-161.5 63.5q-111 0 -178.5 -68.5t-83.5 -238.5h-133zM301 102.5 q0 55.5 36 92t93 36.5t94 -36.5t37 -92t-37 -93.5t-94 -38q-55 0 -92 38t-37 93.5z" />
<glyph unicode="@" horiz-adv-x="1953" d="M90 457q0 377 265.5 642t641.5 265q371 0 618 -233.5t247 -573.5q0 -236 -132.5 -412t-312.5 -176q-195 0 -254 117q-109 -109 -280 -109q-186 0 -271.5 96.5t-85.5 250.5q0 147 56.5 286.5t176.5 235.5t275 96q133 0 207 -63q0 4 2 13t3 16t1 14h203 q-106 -688 -107 -727q0 -135 87 -136q135 0 234 153t99 345q0 299 -219 512t-547 213q-334 0 -572.5 -242.5t-238.5 -582.5t239 -582t572 -242q145 0 285.5 55.5t222.5 153.5l64 -61q-102 -106 -257 -169t-315 -63q-377 0 -642 265.5t-265 642.5zM748 360q0 -131 37.5 -215 t117.5 -84q90 0 160 57.5t88 178.5l51 328q20 123 -35 179t-143 56q-76 0 -133 -49t-87 -128t-43 -160t-13 -163z" />
<glyph unicode="A" horiz-adv-x="1304" d="M16 0v86h158l442 1251h134l452 -1251h139v-86h-524v86h158l-146 401h-413l-142 -401h156v-86h-414zM449 578h348l-174 487z" />
<glyph unicode="B" horiz-adv-x="1224" d="M61 0v86h179v1167h-179v84h660q156 0 258 -95t102 -234q0 -78 -50 -155t-126 -120q113 -37 182.5 -128t69.5 -218q0 -170 -119.5 -278.5t-314.5 -108.5h-662zM457 86h235q94 0 165 81t71 218q0 115 -66.5 197t-171.5 82h-233v-578zM457 758h207q86 0 141 66.5t55 176.5 q0 115 -58.5 183.5t-137.5 68.5h-207v-495z" />
<glyph unicode="C" horiz-adv-x="1150" d="M90 608q0 113 20.5 217.5t66.5 201.5t112.5 170t168 116t226.5 43q252 0 416 -168v-219h-129q-16 158 -102.5 234.5t-184.5 76.5q-100 0 -173 -41t-114 -113.5t-60.5 -162t-19.5 -197.5q0 -176 36 -328.5t122 -259t209 -106.5q205 0 328 147l73 -63q-152 -178 -401 -179 q-160 0 -279.5 55.5t-185 148.5t-97.5 200.5t-32 226.5z" />
<glyph unicode="D" horiz-adv-x="1363" d="M61 0v86h177v1167h-177v84h658q158 0 275.5 -52t185 -145t99.5 -207t32 -249q0 -129 -33 -245.5t-100.5 -217t-186.5 -161t-272 -60.5h-658zM459 86h260q131 0 216 91t115.5 219t30.5 290q0 258 -89 412.5t-273 154.5h-260v-1167z" />
<glyph unicode="E" horiz-adv-x="1155" d="M61 0v86h177v1167h-177v84h1041v-364h-96l-109 280h-440v-495h274v143h100v-381h-100v144h-274v-578h458l105 279h98v-365h-1057z" />
<glyph unicode="F" horiz-adv-x="1138" d="M61 0v86h177v1167h-177v84h1041v-364h-96l-109 280h-440v-495h274v143h103v-381h-103v144h-274v-578h176v-86h-572z" />
<glyph unicode="G" horiz-adv-x="1325" d="M90 608q0 143 33 271.5t100.5 238t185 174t273.5 64.5q272 0 436 -168v-219h-129q-14 156 -108.5 233.5t-198.5 77.5q-193 0 -280 -142.5t-87 -371.5q0 -131 20.5 -253t63.5 -226.5t116 -168t167 -63.5q113 0 190.5 84t77.5 207v141h-227v84h561v-84h-113v-487h-221v80 q-94 -102 -268 -103q-160 0 -279.5 55.5t-185 148.5t-96.5 199.5t-31 227.5z" />
<glyph unicode="H" horiz-adv-x="1378" d="M61 0v86h144v1167h-144v84h500v-84h-139v-499h569v499h-137v84h500v-84h-144v-1167h144v-86h-500v86h137v576h-569v-576h139v-86h-500z" />
<glyph unicode="I" horiz-adv-x="702" d="M61 0v86h199v1167h-199v84h625v-84h-207v-1167h207v-86h-625z" />
<glyph unicode="J" horiz-adv-x="696" d="M-115 -365l62 62q96 -74 186 -74q109 0 109 150v1480h-201v84h623v-84h-205v-1368q0 -168 -96.5 -255t-229.5 -87q-146 0 -248 92z" />
<glyph unicode="K" horiz-adv-x="1374" d="M51 0v86h156v1167h-156v84h524v-84h-149v-493h76l477 493h-160v84h465v-84h-180l-426 -442l557 -725h170v-86h-592v86h135l-432 571h-90v-571h149v-86h-524z" />
<glyph unicode="L" horiz-adv-x="1134" d="M57 0v86h179v1167h-179v84h582v-84h-186v-1167h473l104 279h98v-365h-1071z" />
<glyph unicode="M" horiz-adv-x="1654" d="M68 0v86h161v1165h-161v86h378l420 -1067l408 1067h356v-86h-160v-1165h160v-86h-534v86h155v911l-379 -997h-120l-416 1057v-971h156v-86h-424z" />
<glyph unicode="N" horiz-adv-x="1298" d="M61 0v86h160v1165h-160v86h359l588 -948v862h-166v86h432v-86h-168v-1251h-121l-663 1083v-997h172v-86h-433z" />
<glyph unicode="O" d="M90 608q0 141 34 270.5t101.5 238t185 174t271.5 65.5q156 0 274.5 -54.5t185 -146.5t99.5 -199.5t33 -226.5q0 -139 -34 -268t-102.5 -239.5t-186 -177.5t-269.5 -67q-160 0 -278.5 55.5t-185 148.5t-97.5 199.5t-31 227.5zM317 766v-19q0 -167 34 -315 q36 -156 122 -266.5t209 -110.5q367 0 367 523q0 178 -37 332.5t-123 262t-209 107.5q-193 0 -278 -142.5t-85 -371.5z" />
<glyph unicode="P" horiz-adv-x="1155" d="M61 0v86h160v1167h-160v84h611q207 0 312.5 -99t105.5 -253q0 -158 -114 -263.5t-304 -105.5h-232v-530h160v-86h-539zM440 707h207q88 0 146.5 77.5t58.5 196.5q0 123 -56.5 197.5t-148.5 74.5h-207v-546z" />
<glyph unicode="Q" d="M90 608q0 141 34 269.5t102.5 238t186 175t269.5 65.5q158 0 276.5 -54.5t185 -146.5t99.5 -199.5t33 -226.5q0 -113 -22.5 -221.5t-68.5 -210.5t-128 -180t-193 -115q61 -94 82 -123q57 -90 94 -128t88 -38q90 0 193 99l63 -76q-104 -100 -256 -101q-268 0 -395 183 l-102 159q-145 10 -254 68.5t-169.5 150t-89 194.5t-28.5 218zM317 766q0 -178 36 -334t121 -266.5t208 -110.5q195 0 282 141.5t87 378.5q0 178 -37 333t-124 262.5t-210 107.5q-193 0 -278 -141.5t-85 -370.5z" />
<glyph unicode="R" horiz-adv-x="1253" d="M59 0v86h160v1167h-160v84h607q209 0 314 -99t105 -253q0 -123 -72.5 -219t-219.5 -133l327 -547h162v-86h-354l-371 616h-119v-530h158v-86h-537zM438 707h207q88 0 146.5 76.5t58.5 197.5t-56.5 196.5t-148.5 75.5h-207v-546z" />
<glyph unicode="S" horiz-adv-x="1009" d="M94 1028q0 143 115 235.5t307 92.5q254 0 391 -137v-248h-149q-16 174 -78 241.5t-168 67.5q-109 0 -162 -64.5t-53 -158.5q0 -106 80 -158l395 -250q186 -121 186 -313q0 -156 -122.5 -257.5t-325.5 -101.5q-143 0 -249.5 41t-162.5 105v246h146q39 -311 266 -312 q109 0 173.5 64.5t64.5 173.5q0 115 -80 170q-23 16 -111 73l-183 116l-112 71q-168 113 -168 303z" />
<glyph unicode="T" horiz-adv-x="1167" d="M68 973v364h1073v-364h-99l-106 280h-221v-1167h174v-86h-572v86h177v1167h-224l-106 -280h-96z" />
<glyph unicode="U" horiz-adv-x="1302" d="M47 1253v84h543v-84h-162v-866q0 -154 73.5 -235.5t196.5 -81.5q137 0 230.5 75.5t93.5 219.5v888h-170v84h440v-84h-164v-886q0 -178 -116.5 -284t-321.5 -106q-211 0 -345 115t-134 316v845h-164z" />
<glyph unicode="V" horiz-adv-x="1361" d="M16 1253v84h566v-84h-170l348 -974l346 974h-176v84h463v-84h-185l-440 -1253h-135l-447 1253h-170z" />
<glyph unicode="W" horiz-adv-x="1992" d="M16 1253v84h566v-84h-168l295 -921l286 997h109l323 -999l287 923h-178v84h463v-84h-180l-387 -1253h-123l-310 969l-282 -969h-125l-404 1253h-172z" />
<glyph unicode="X" horiz-adv-x="1392" d="M27 0v86h192l385 563l-383 604h-170v84h600v-84h-170l260 -413l283 413h-178v84h477v-84h-182l-342 -499l428 -668h178v-86h-617v86h179l-303 477l-330 -477h190v-86h-497z" />
<glyph unicode="Y" horiz-adv-x="1228" d="M25 1253v84h557v-84h-162l264 -542l283 542h-181v84h471v-84h-188l-326 -639v-528h201v-86h-616v86h196v477l-340 690h-159z" />
<glyph unicode="Z" horiz-adv-x="1128" d="M61 0l2 84l793 1169h-543l-108 -280h-96v364h981v-75l-787 -1176h600l109 279h96v-365h-1047z" />
<glyph unicode="[" horiz-adv-x="497" d="M147 -365v1795h361v-93h-207v-1611h207v-91h-361z" />
<glyph unicode="\" horiz-adv-x="716" d="M57 1393h111l520 -1446h-113z" />
<glyph unicode="]" horiz-adv-x="495" d="M6 -274h207v1611h-207v93h356v-1795h-356v91z" />
<glyph unicode="^" horiz-adv-x="843" d="M35 571l330 840h102l330 -840h-109l-272 697l-275 -697h-106z" />
<glyph unicode="_" horiz-adv-x="950" d="M57 -150h838v-98h-838v98z" />
<glyph unicode="`" horiz-adv-x="485" d="M8 1235l125 131l309 -326h-127z" />
<glyph unicode="a" horiz-adv-x="987" d="M98 223q0 156 217 230l324 106v68q0 125 -32 183t-107 58q-82 0 -122 -45q-33 -37 -33 -91q0 -11 1 -23l10 -93h-204q-4 24 -5 47q0 69 37 128q92 150 318 149q340 0 340 -313v-514q0 -42 33 -42q4 0 10 1q33 6 69 30l35 -63q-90 -63 -186 -64q-45 0 -84 20.5t-55 41.5 l-17 20q-96 -82 -227 -82q-322 0 -322 248zM313 223q0 -59 36 -110.5t100 -51.5q92 0 190 89v325l-213 -72q-113 -41 -113 -180z" />
<glyph unicode="b" horiz-adv-x="1083" d="M16 1329v70l344 24v-561q88 78 224 78q219 0 325.5 -124t106.5 -312q0 -131 -44 -248t-143.5 -198t-238.5 -81q-147 0 -230 89v-66h-200v1329h-144zM360 281q0 -106 67 -164t163 -58q211 0 211 340q0 199 -55.5 329t-165.5 130q-90 0 -155 -55t-65 -178v-344z" />
<glyph unicode="c" horiz-adv-x="921" d="M111 416q0 135 41 249.5t139 194.5t237 80q287 0 353 -254h-203q-33 178 -150 178q-211 0 -211 -342q0 -188 61.5 -319t186.5 -131q154 0 223 170l82 -21q-88 -244 -338 -244q-111 0 -195.5 38t-131.5 102.5t-70.5 139.5t-23.5 159z" />
<glyph unicode="d" horiz-adv-x="1073" d="M109 420q0 129 39.5 242.5t139 195.5t240.5 82q131 0 217 -76v465h-145v70l346 24v-1423h-201v61q-78 -84 -217 -84q-115 0 -198.5 38t-130.5 103.5t-68.5 141.5t-21.5 160zM319 528v-21q0 -105 19 -198q20 -102 71.5 -176t127.5 -74q90 0 149 57.5t59 178.5v330 q0 123 -64.5 179t-152.5 56q-209 0 -209 -332z" />
<glyph unicode="e" horiz-adv-x="983" d="M109 420q0 135 40.5 248.5t139 192.5t239.5 79q205 0 304.5 -119t99.5 -334h-613q2 -166 63.5 -290.5t180.5 -124.5q156 0 238 166l86 -23q-102 -238 -348 -238q-113 0 -199 39t-135 103.5t-72.5 140.5t-23.5 160zM319 565h375q1 22 1 43q0 258 -167 258 q-195 0 -209 -301z" />
<glyph unicode="f" horiz-adv-x="671" d="M68 0v74h145v772h-145v76h145v172q0 168 98.5 249.5t231.5 81.5t231 -88l-63 -63q-86 72 -156 72q-143 0 -143 -216v-208h278v-76h-278v-772h194v-74h-538z" />
<glyph unicode="g" horiz-adv-x="1064" d="M88 -145q0 57 31 108t78 76q-74 59 -74 137q0 90 115 172q-100 84 -101 248q0 158 106.5 251t274.5 93q182 0 279 -96h227v-78h-164q39 -78 39 -170q0 -156 -107.5 -247t-273.5 -91q-137 0 -205 39q-43 -43 -43 -115q0 -45 29 -76.5t78 -31.5h86v-74h-94 q-80 -33 -80 -154q0 -102 60.5 -162.5t172.5 -60.5q115 0 178.5 60.5t63.5 162.5q0 125 -82 154h-115v74h471v-74h-139q66 -70 66 -145q0 -141 -122 -224.5t-323 -83.5q-211 0 -321.5 81.5t-110.5 226.5zM340 629v-11q0 -116 44 -200q46 -88 136 -88h5q90 0 129 68 q40 71 40 186q-2 121 -50 202.5t-138 81.5q-86 0 -126 -66.5t-40 -172.5z" />
<glyph unicode="h" horiz-adv-x="1075" d="M37 1331v68l344 24v-565q84 84 231 84q188 0 259 -87t71 -232v-549h127v-74h-459v74h131v549q0 236 -157 235q-84 0 -143.5 -58.5t-59.5 -174.5v-551h129v-74h-457v74h129v1257h-145z" />
<glyph unicode="i" horiz-adv-x="600" d="M51 0v74h162v772h-145v69l346 25v-866h161v-74h-524zM174 1204q0 55 40 94t99 39q57 0 97.5 -38.5t40.5 -94.5q0 -59 -39 -99t-98.5 -40t-99.5 40t-40 99z" />
<glyph unicode="j" horiz-adv-x="593" d="M-160 -362l60 63q86 -72 159 -72q143 0 144 215v1002h-150v69l346 25v-1059q0 -168 -98 -250t-231.5 -81.5t-229.5 88.5zM150 1202q0 57 38.5 96t96.5 39q59 0 98 -38.5t39 -96.5q0 -59 -39 -99t-98 -40q-57 0 -96 40t-39 99z" />
<glyph unicode="k" horiz-adv-x="1073" d="M37 1331v68l344 24v-888h39l332 311h-150v76h422v-76h-152l-294 -285l417 -487h129v-74h-487v74h111l-312 379h-55v-379h129v-74h-457v74h129v1257h-145z" />
<glyph unicode="l" horiz-adv-x="536" d="M37 1331v68l346 24v-1349h129v-74h-461v74h129v1257h-143z" />
<glyph unicode="m" horiz-adv-x="1566" d="M68 846v69l346 25v-82q86 82 204 82q182 0 254 -111q92 111 252 111q172 0 236.5 -86t64.5 -231v-549h131v-74h-434v74h103v549q0 125 -28 180t-97 55q-72 0 -126 -52t-54 -169v-563h112v-74h-428v74h115v549q0 127 -27.5 181t-97.5 54q-72 0 -126 -54t-54 -179v-551h106 v-74h-438v74h133v772h-147z" />
<glyph unicode="n" horiz-adv-x="1089" d="M68 0v74h129v772h-129v69l327 25v-82q84 84 232 84q188 0 258.5 -87t70.5 -232v-549h127v-74h-458v74h131v549q0 236 -158 235q-84 0 -143.5 -58.5t-59.5 -174.5v-551h129v-74h-456z" />
<glyph unicode="o" horiz-adv-x="1015" d="M109 418q0 213 105 367.5t314 154.5q111 0 196 -38t132 -102.5t70.5 -139t23.5 -158.5q0 -131 -43 -247t-142 -197t-237 -81q-115 0 -198.5 38t-130.5 103.5t-68.5 140.5t-21.5 159zM319 526q0 -86 12.5 -168t36 -152.5t65.5 -112.5t95 -42q211 0 211 344 q0 190 -54 330.5t-157 140.5q-209 0 -209 -340z" />
<glyph unicode="p" horiz-adv-x="1079" d="M16 -356h146v1274h200v-60q82 82 220 82q217 0 323.5 -125t106.5 -311q0 -96 -25.5 -186.5t-75 -168t-132.5 -125t-187 -47.5q-139 0 -230 82v-415h146v-74h-492v74zM362 279q0 -104 67 -162t163 -58q211 0 211 340q0 197 -55.5 327t-165.5 130q-90 0 -155 -54t-65 -177 v-346z" />
<glyph unicode="q" horiz-adv-x="1056" d="M109 420q0 213 105 367.5t314 154.5q135 0 217 -82v43l203 43v-1302h144v-74h-492v74h145v411q-82 -78 -217 -78q-217 0 -318 129.5t-101 313.5zM319 526v-21q0 -105 19 -197q20 -101 71.5 -175t127.5 -74q92 0 150 57.5t58 178.5v330q0 123 -64.5 178t-152.5 55 q-209 0 -209 -332z" />
<glyph unicode="r" horiz-adv-x="811" d="M68 846v69l325 25v-149q111 150 269 149q49 0 95 -13.5t66 -25.5l23 -12v-53l-115 -115q-55 90 -149 90q-80 0 -134.5 -57.5t-54.5 -161.5v-518h174v-74h-497v74h127v772h-129z" />
<glyph unicode="s" horiz-adv-x="901" d="M123 86v229h119q0 -139 64.5 -200.5t162.5 -61.5q78 0 121 41t43 109q0 70 -55 104l-306 182q-137 78 -137 216q0 100 93.5 167.5t242.5 67.5q98 0 188.5 -29.5t135.5 -76.5v-230h-123q0 262 -203 262q-76 0 -111.5 -41t-35.5 -100t53 -92l299 -166q150 -82 149 -236 q0 -109 -97 -181.5t-257 -72.5q-117 0 -211 32t-135 77z" />
<glyph unicode="t" horiz-adv-x="700" d="M66 842v55l256 233h59v-212h305v-76h-305v-604q0 -174 125 -175q53 0 139 62l57 -59q-113 -88 -227 -89q-295 0 -295 271v594h-114z" />
<glyph unicode="u" horiz-adv-x="1107" d="M55 846v74h328v-623q0 -236 158 -236q84 0 143 57.5t59 176.5v551h-129v74h328v-846h129v-70l-328 -24v83q-86 -86 -231 -86q-188 0 -259 86.5t-71 233.5v549h-127z" />
<glyph unicode="v" horiz-adv-x="976" d="M0 846v74h455v-74h-131l239 -596l225 596h-137v74h350v-74h-112l-314 -846h-112l-359 846h-104z" />
<glyph unicode="w" horiz-adv-x="1468" d="M0 846v74h455v-74h-127l229 -580l213 654h64l245 -654l199 580h-139v74h354v-74h-113l-299 -846h-110l-219 573l-187 -573h-112l-342 846h-111z" />
<glyph unicode="x" horiz-adv-x="1056" d="M51 0v76h135l258 375l-258 395h-127v74h461v-74h-106l153 -236l168 236h-112v74h340v-74h-119l-226 -320l300 -450h122v-76h-489v76h137l-186 284l-199 -284h123v-76h-375z" />
<glyph unicode="y" horiz-adv-x="983" d="M10 846v74h457v-74h-131l235 -586l222 586h-131v74h346v-74h-115l-408 -1088q-43 -113 -94 -161t-147 -48q-115 0 -221 93l59 65q74 -74 162 -74q96 0 147 136l82 217l-356 860h-107z" />
<glyph unicode="z" horiz-adv-x="911" d="M78 0v70l543 776h-328l-88 -228h-82v302h713v-64l-527 -780h393l86 229h80v-305h-790z" />
<glyph unicode="{" horiz-adv-x="573" d="M90 664v32q74 23 99.5 57.5t25.5 112.5v289q0 121 88 190.5t211 77.5l16 -43q-78 -20 -107.5 -67t-29.5 -133v-289q0 -90 -25.5 -137t-105.5 -74q80 -27 105.5 -73t25.5 -138v-289q0 -86 30 -133t107 -67l-16 -43q-123 8 -211 77.5t-88 190.5v289q0 78 -25.5 112.5 t-99.5 57.5z" />
<glyph unicode="|" horiz-adv-x="337" d="M127 -84v1509h104v-1509h-104z" />
<glyph unicode="}" horiz-adv-x="573" d="M90 -20q76 20 105.5 67t29.5 133v289q0 92 25.5 138t105.5 73q-80 27 -105.5 74t-25.5 137v289q0 86 -28.5 133t-106.5 67l16 43q121 -8 209 -77.5t88 -190.5v-289q0 -78 25 -112.5t102 -57.5v-32q-78 -23 -102.5 -58t-24.5 -112v-289q0 -121 -88 -190.5t-209 -77.5z" />
<glyph unicode="~" horiz-adv-x="962" d="M90 469q16 82 69.5 137.5t139.5 55.5q45 0 226.5 -40t228.5 -40q25 0 45 22.5t24 50.5h99q-16 -84 -66.5 -139t-132.5 -55q-49 0 -233.5 41t-229.5 41q-25 0 -46 -22.5t-26 -51.5h-98z" />
<glyph unicode="&#xa1;" horiz-adv-x="499" d="M127 827q0 57 37 94t94 37t93 -36.5t36 -94.5q0 -55 -37 -92t-92 -37q-57 0 -94 38t-37 91zM141 -410l37 916h156l35 -916h-228z" />
<glyph unicode="&#xa2;" horiz-adv-x="985" d="M111 635q0 201 95 353.5t279 168.5v182h103v-184q139 -14 204.5 -86t94.5 -188h-205q-29 203 -154 202q-211 0 -211 -342q0 -188 61.5 -323t186.5 -135q55 0 113.5 35.5t97.5 89.5l76 -56q-104 -135 -264 -155v-197h-103v197q-193 14 -283.5 141t-90.5 297z" />
<glyph unicode="&#xa3;" horiz-adv-x="1095" d="M47 0v88h174v668h-160v90h160v129q0 195 120 290t300 95q236 0 371 -139v-248h-129q-16 174 -77 241.5t-165 67.5q-96 0 -148.5 -76t-52.5 -221v-139h322v-90h-322v-668h416l107 277h96v-365h-1012z" />
<glyph unicode="&#xa5;" horiz-adv-x="1267" d="M45 1253v84h557v-84h-162l265 -542l282 542h-180v84h471v-84h-188l-209 -407h225v-90h-272l-70 -142v-26h340v-92h-340v-410h201v-86h-619v86h199v410h-344v92h331l-83 168h-248v90h202l-198 407h-160z" />
<glyph unicode="&#xa6;" horiz-adv-x="843" d="M236 0v573h102v-573h-102zM236 766v573h102v-573h-102z" />
<glyph unicode="&#xa7;" horiz-adv-x="851" d="M90 723q0 147 162 213h-2q-133 82 -133 221q0 100 93 168t243 68q203 0 309 -107v-237h-119q0 147 -51 203.5t-141 56.5q-76 0 -112 -38t-36 -95q0 -66 49 -97l303 -168q147 -82 147.5 -229t-169.5 -221q152 -84 151 -230q0 -109 -98 -181.5t-258 -72.5q-238 0 -334 111 v238h113q0 -141 63.5 -203t157.5 -62q76 0 120 38t44 104q0 74 -49 104l-316 185q-137 79 -137 231zM274 741q0 -70 58 -106l196 -113q39 14 63.5 49t24.5 82q0 72 -53 105l-211 116q-78 -35 -78 -133z" />
<glyph unicode="&#xa8;" horiz-adv-x="780" d="M90 1212.5q0 49.5 34 83t83 33.5t84 -33.5t35 -83t-35 -83t-84 -33.5t-83 33.5t-34 83zM467 1212.5q0 49.5 35 83t82 33.5q49 0 83.5 -33.5t34.5 -83t-34.5 -83t-83.5 -33.5q-47 0 -82 33.5t-35 83z" />
<glyph unicode="&#xa9;" horiz-adv-x="1488" d="M57 670q0 287 207 487.5t500 200.5t498.5 -201t205.5 -487q0 -285 -205.5 -486.5t-498.5 -201.5t-500 201.5t-207 486.5zM152 670q0 -248 180 -425t432 -177t432 177t180 425q0 250 -180 428t-432 178t-432 -178t-180 -428zM387 639q0 190 97.5 330.5t283.5 140.5 q289 0 348 -262h-209q-12 88 -48 142t-91 54q-98 0 -143 -85t-45 -220q0 -164 59 -292t164 -128q66 0 124 37t91 101l69 -41q-51 -78 -122.5 -126t-194.5 -48q-199 0 -291 116.5t-92 280.5z" />
<glyph unicode="&#xaa;" horiz-adv-x="733" d="M57 815q0 121 158 174l234 76v39q0 92 -20.5 131t-80.5 39q-111 0 -96 -109l10 -71h-172q-12 66 25 135q66 106 235 106q252 0 252 -231v-381q0 -23 21 -16l53 26l29 -57q-76 -47 -144 -47q-66 0 -104 55q-72 -55 -162 -55q-109 0 -173.5 47t-64.5 139zM219 815 q0 -41 24.5 -78t67.5 -37q70 0 138 62v235q-100 -37 -150 -53q-80 -35 -80 -129z" />
<glyph unicode="&#xab;" horiz-adv-x="940" d="M88 477l428 400l45 -50l-268 -350l268 -354l-45 -47zM393 477l428 400l47 -50l-272 -350l272 -354l-47 -47z" />
<glyph unicode="&#xac;" horiz-adv-x="927" d="M43 637v98h831l-2 -465h-96v367h-733z" />
<glyph unicode="&#xad;" horiz-adv-x="622" d="M90 487v97h457v-97h-457z" />
<glyph unicode="&#xae;" horiz-adv-x="1488" d="M57 670q0 287 207 487.5t500 200.5t498.5 -201t205.5 -487q0 -285 -205.5 -486.5t-498.5 -201.5t-500 201.5t-207 486.5zM152 670q0 -248 180 -425t432 -177t432 177t180 425q0 250 -180 428t-432 178t-432 -178t-180 -428zM422 268v74h102v686h-102v72h409 q102 0 169 -64.5t67 -156.5q0 -78 -54.5 -144.5t-138.5 -81.5l189 -311h108v-74h-249l-228 383h-6v-309h109v-74h-375zM688 729h109q41 0 71.5 44t30.5 106q0 68 -29.5 108.5t-72.5 40.5h-109v-299z" />
<glyph unicode="&#xaf;" horiz-adv-x="557" d="M57 1063v98h457v-98h-457z" />
<glyph unicode="&#xb0;" horiz-adv-x="600" d="M90 1120q0 86 63.5 148.5t149.5 62.5q90 0 155.5 -61.5t65.5 -149.5q0 -90 -65.5 -155.5t-155.5 -65.5q-86 0 -149.5 65.5t-63.5 155.5zM195 1120q0 -51 28.5 -86t79.5 -35q47 0 81 36t34 85q0 45 -34 81t-81 36q-49 0 -78.5 -35t-29.5 -82z" />
<glyph unicode="&#xb1;" horiz-adv-x="1028" d="M90 0v98h838v-98h-838zM111 487v97h368v372h99v-372h370v-97h-370v-370h-99v370h-368z" />
<glyph unicode="&#xb2;" horiz-adv-x="667" d="M100 1221q82 129 213 129q92 0 162 -50.5t70 -144.5q0 -86 -144 -233l-143 -146h295v-108h-442v51l194 215q104 121 105 219q0 51 -28 85t-71 34q-94 0 -149 -90z" />
<glyph unicode="&#xb3;" horiz-adv-x="634" d="M80 729l55 49q63 -70 156 -69q49 0 83 30.5t34 96.5q0 59 -31 93t-78 34h-57v57q55 0 102 32.5t47 92.5q0 51 -25.5 75.5t-64.5 24.5q-88 0 -143 -84l-60 39q76 123 203 123q88 0 154.5 -48t66.5 -138q0 -78 -82 -138q102 -51 102.5 -153.5t-76.5 -159.5t-175 -57 q-129 0 -211 100z" />
<glyph unicode="&#xb4;" horiz-adv-x="565" d="M90 1040l307 326l127 -131l-309 -195h-125z" />
<glyph unicode="&#xb5;" horiz-adv-x="1079" d="M154 -387v1307h200v-623q0 -236 158 -236q82 0 140.5 54.5t62.5 167.5v637h198v-822q0 -39 39 -26l68 32l33 -67q-94 -61 -189 -62q-102 0 -139 91l-10 -11q-88 -78 -232 -78q-74 0 -129 46v-453z" />
<glyph unicode="&#xb6;" horiz-adv-x="1155" d="M145 985q0 154 106.5 253t311.5 99h527v-84h-158v-1253h-103v1253h-159v-1253h-103v616h-4q-190 0 -304 105.5t-114 263.5z" />
<glyph unicode="&#xb7;" horiz-adv-x="409" d="M84 485q0 55 36 92t93 37t93 -36.5t36 -92.5q0 -57 -36 -95t-93 -38t-93 38t-36 95z" />
<glyph unicode="&#xb8;" horiz-adv-x="481" d="M90 -240l227 201h117l-211 -332z" />
<glyph unicode="&#xb9;" horiz-adv-x="614" d="M152 1178l192 129h53v-609h97v-63h-318v63h94v478l-84 -56z" />
<glyph unicode="&#xba;" horiz-adv-x="677" d="M57 985q0 168 81 260t200 92q121 0 202 -88t81 -264q0 -172 -82 -265t-201 -93t-200 91t-81 267zM227 985q0 -285 111 -285q113 0 113 285q0 281 -113 281q-111 0 -111 -281z" />
<glyph unicode="&#xbb;" horiz-adv-x="940" d="M88 123l270 354l-270 350l45 50l428 -400l-428 -401zM393 123l271 354l-271 350l47 50l428 -400l-428 -401z" />
<glyph unicode="&#xbc;" horiz-adv-x="1382" d="M152 1178l192 129h53v-609h97v-63h-318v63h94v478l-84 -56zM393 -53l522 1446h109l-518 -1446h-113zM725 160v59l330 467h90v-426h112v-100h-112v-146h-129v146h-291zM831 260h185v250z" />
<glyph unicode="&#xbd;" horiz-adv-x="1382" d="M152 1178l192 129h53v-609h97v-63h-318v63h94v478l-84 -56zM393 -53l522 1446h109l-518 -1446h-113zM844 553q84 129 213 129q92 0 161.5 -50t69.5 -145q0 -88 -141 -233l-143 -145h292v-109h-442v51l195 215q106 119 106 219q0 53 -27.5 86t-72.5 33q-90 0 -148 -90z " />
<glyph unicode="&#xbe;" horiz-adv-x="1382" d="M80 729l55 49q63 -70 156 -69q49 0 83 30.5t34 96.5q0 59 -31 93t-78 34h-57v57q55 0 102 32.5t47 92.5q0 51 -25.5 75.5t-64.5 24.5q-88 0 -143 -84l-60 39q76 123 203 123q88 0 154.5 -48t66.5 -138q0 -78 -82 -138q102 -51 102.5 -153.5t-76.5 -159.5t-175 -57 q-129 0 -211 100zM393 -53l522 1446h109l-518 -1446h-113zM725 160v59l330 467h90v-426h112v-100h-112v-146h-129v146h-291zM831 260h185v250z" />
<glyph unicode="&#xbf;" horiz-adv-x="950" d="M109 -106q0 68 25.5 125t49 84.5t74.5 76.5l156 158q78 74 78 166h139q0 -96 -21.5 -139t-99.5 -136q-18 -23 -66.5 -75t-72.5 -82q-59 -82 -60 -203q0 -94 54.5 -158.5t162.5 -64.5q111 0 178.5 68.5t81.5 238.5h136v-246q-137 -141 -392 -141q-193 0 -308 92.5 t-115 235.5zM424 827q0 57 37 94t94 37q55 0 92 -36.5t37 -94.5q0 -53 -37 -91t-92 -38t-93 38t-38 91z" />
<glyph unicode="&#xc0;" horiz-adv-x="1304" d="M27 0v86h157l443 1251h133l452 -1251h140v-86h-525v86h158l-145 401h-414l-141 -401h155v-86h-413zM459 578h348l-174 487zM477 1616l125 131l309 -326h-127z" />
<glyph unicode="&#xc1;" horiz-adv-x="1304" d="M27 0v86h157l443 1251h133l452 -1251h140v-86h-525v86h158l-145 401h-414l-141 -401h155v-86h-413zM449 1417l307 326l127 -131l-310 -195h-124zM459 578h348l-174 487z" />
<glyph unicode="&#xc2;" horiz-adv-x="1304" d="M27 0v86h157l443 1251h133l452 -1251h140v-86h-525v86h158l-145 401h-414l-141 -401h155v-86h-413zM373 1421l321 334l324 -334h-121l-203 125l-202 -125h-119zM459 578h348l-174 487z" />
<glyph unicode="&#xc3;" horiz-adv-x="1304" d="M27 0v86h157l443 1251h133l452 -1251h140v-86h-525v86h158l-145 401h-414l-141 -401h155v-86h-413zM379 1419q16 84 69.5 138.5t139.5 54.5q55 0 133 -37q90 -41 123 -41q23 0 44 21.5t25 50.5h99q-16 -84 -66.5 -139.5t-132.5 -55.5q-53 0 -143 41t-121 41 q-25 0 -46.5 -22.5t-25.5 -51.5h-98zM459 578h348l-174 487z" />
<glyph unicode="&#xc4;" horiz-adv-x="1304" d="M27 0v86h157l443 1251h133l452 -1251h140v-86h-525v86h158l-145 401h-414l-141 -401h155v-86h-413zM369 1532q0 49 33.5 83t83 34t84 -34t34.5 -83t-34.5 -83t-84 -34t-83 34t-33.5 83zM459 578h348l-174 487zM745 1532q0 49 35 83t82 34q49 0 84 -34t35 -83t-35 -83 t-84 -34q-47 0 -82 34t-35 83z" />
<glyph unicode="&#xc5;" horiz-adv-x="1304" d="M27 0v86h157l443 1251h133l452 -1251h140v-86h-525v86h158l-145 401h-414l-141 -401h155v-86h-413zM459 578h348l-174 487zM514 1581q0 72 53.5 123t126.5 51q72 0 124 -51t52 -123q0 -74 -52 -127t-123.5 -53t-126 53t-54.5 127zM586 1579q0 -43 30.5 -77t77.5 -34 q41 0 73 34t32 77q0 41 -32 75t-73 34q-47 0 -77.5 -33t-30.5 -76z" />
<glyph unicode="&#xc6;" horiz-adv-x="1748" d="M8 0v86h168l537 1167h-129v84h1114v-364h-94l-109 280h-442v-495h276v143h111v-381h-111v144h-276v-578h458l109 279h94v-365h-1055v86h177v399h-365l-184 -399h159v-86h-438zM512 578h324v673h-17z" />
<glyph unicode="&#xc7;" horiz-adv-x="1150" d="M90 608q0 113 20.5 217.5t66.5 201.5t112.5 170t168 116t226.5 43q252 0 416 -168v-219h-129q-16 158 -102.5 234.5t-184.5 76.5q-100 0 -173 -41t-114 -113.5t-60.5 -162t-19.5 -197.5q0 -176 36 -328.5t122 -259t209 -106.5q205 0 328 147l73 -63q-152 -178 -401 -179 q-160 0 -279.5 55.5t-185 148.5t-97.5 200.5t-32 226.5zM389 -283l227 201h117l-211 -332z" />
<glyph unicode="&#xc8;" horiz-adv-x="1140" d="M51 0v86h176v1167h-176v84h1041v-364h-97l-108 280h-441v-495h275v143h100v-381h-100v144h-275v-578h459l105 279h98v-365h-1057zM416 1616l125 131l309 -326h-127z" />
<glyph unicode="&#xc9;" horiz-adv-x="1140" d="M51 0v86h176v1167h-176v84h1041v-364h-97l-108 280h-441v-495h275v143h100v-381h-100v144h-275v-578h459l105 279h98v-365h-1057zM410 1421l307 326l127 -131l-309 -195h-125z" />
<glyph unicode="&#xca;" horiz-adv-x="1140" d="M51 0v86h176v1167h-176v84h1041v-364h-97l-108 280h-441v-495h275v143h100v-381h-100v144h-275v-578h459l105 279h98v-365h-1057zM299 1421l322 334l323 -334h-121l-202 125l-203 -125h-119z" />
<glyph unicode="&#xcb;" horiz-adv-x="1140" d="M51 0v86h176v1167h-176v84h1041v-364h-97l-108 280h-441v-495h275v143h100v-381h-100v144h-275v-578h459l105 279h98v-365h-1057zM307 1532q0 49 34 83t83 34t84 -34t35 -83t-35 -83t-84 -34t-83 34t-34 83zM684 1532q0 49 35 83t82 34q49 0 84 -34t35 -83t-35 -83 t-84 -34q-47 0 -82 34t-35 83z" />
<glyph unicode="&#xcc;" horiz-adv-x="724" d="M72 0v86h198v1167h-198v84h624v-84h-207v-1167h207v-86h-624zM168 1610l125 131l309 -326h-127z" />
<glyph unicode="&#xcd;" horiz-adv-x="694" d="M57 0v86h199v1167h-199v84h625v-84h-207v-1167h207v-86h-625zM143 1415l308 326l127 -131l-310 -195h-125z" />
<glyph unicode="&#xce;" horiz-adv-x="706" d="M57 1419l322 334l323 -334h-120l-203 125l-203 -125h-119zM68 0v86h198v1167h-198v84h624v-84h-207v-1167h207v-86h-624z" />
<glyph unicode="&#xcf;" horiz-adv-x="714" d="M57 1530q0 49 34 83t83 34t84 -34t35 -83t-35 -83t-84 -34t-83 34t-34 83zM74 0v86h198v1167h-198v84h624v-84h-206v-1167h206v-86h-624zM434 1530q0 49 35 83t82 34q49 0 84 -34t35 -83t-35 -83t-84 -34q-47 0 -82 34t-35 83z" />
<glyph unicode="&#xd0;" horiz-adv-x="1363" d="M61 0v86h177v541h-177v98h177v528h-177v84h658q158 0 275.5 -52t185 -145t99.5 -207t32 -249q0 -129 -33 -245.5t-100.5 -217t-186.5 -161t-272 -60.5h-658zM459 86h260q131 0 216 91t115.5 219t30.5 290q0 258 -89 412.5t-273 154.5h-260v-528h250v-98h-250v-541z" />
<glyph unicode="&#xd1;" horiz-adv-x="1312" d="M72 0v86h159v1165h-159v86h358l588 -948v862h-166v86h432v-86h-168v-1251h-121l-663 1083v-997h172v-86h-432zM367 1419q16 84 69 138.5t139 54.5q55 0 134 -37q90 -41 122 -41q23 0 44.5 21.5t25.5 50.5h98q-16 -84 -66 -139.5t-132 -55.5q-53 0 -143.5 41t-120.5 41 q-25 0 -46.5 -22.5t-25.5 -51.5h-98z" />
<glyph unicode="&#xd2;" d="M90 608q0 141 34 270.5t101.5 238t185 174t271.5 65.5q156 0 274.5 -54.5t185 -146.5t99.5 -199.5t33 -226.5q0 -139 -34 -268t-102.5 -239.5t-186 -177.5t-269.5 -67q-160 0 -278.5 55.5t-185 148.5t-97.5 199.5t-31 227.5zM317 766q-2 -178 34 -334t122 -266.5 t209 -110.5q367 0 367 523q0 178 -37 332.5t-123 262t-209 107.5q-193 0 -278 -142.5t-85 -371.5zM461 1616l125 131l309 -326h-127z" />
<glyph unicode="&#xd3;" d="M90 608q0 141 34 270.5t101.5 238t185 174t271.5 65.5q156 0 274.5 -54.5t185 -146.5t99.5 -199.5t33 -226.5q0 -139 -34 -268t-102.5 -239.5t-186 -177.5t-269.5 -67q-160 0 -278.5 55.5t-185 148.5t-97.5 199.5t-31 227.5zM317 766q-2 -178 34 -334t122 -266.5 t209 -110.5q367 0 367 523q0 178 -37 332.5t-123 262t-209 107.5q-193 0 -278 -142.5t-85 -371.5zM442 1421l308 326l127 -131l-310 -195h-125z" />
<glyph unicode="&#xd4;" d="M90 608q0 141 34 270.5t101.5 238t185 174t271.5 65.5q156 0 274.5 -54.5t185 -146.5t99.5 -199.5t33 -226.5q0 -139 -34 -268t-102.5 -239.5t-186 -177.5t-269.5 -67q-160 0 -278.5 55.5t-185 148.5t-97.5 199.5t-31 227.5zM317 766q-2 -178 34 -334t122 -266.5 t209 -110.5q367 0 367 523q0 178 -37 332.5t-123 262t-209 107.5q-193 0 -278 -142.5t-85 -371.5zM352 1421l322 334l323 -334h-120l-203 125l-203 -125h-119z" />
<glyph unicode="&#xd5;" d="M90 608q0 141 34 270.5t101.5 238t185 174t271.5 65.5q156 0 274.5 -54.5t185 -146.5t99.5 -199.5t33 -226.5q0 -139 -34 -268t-102.5 -239.5t-186 -177.5t-269.5 -67q-160 0 -278.5 55.5t-185 148.5t-97.5 199.5t-31 227.5zM317 766q-2 -178 34 -334t122 -266.5 t209 -110.5q367 0 367 523q0 178 -37 332.5t-123 262t-209 107.5q-193 0 -278 -142.5t-85 -371.5zM371 1417q16 84 69.5 138.5t139.5 54.5q55 0 133 -37q90 -41 123 -41q23 0 44 21.5t25 50.5h99q-16 -84 -66.5 -139.5t-132.5 -55.5q-53 0 -143.5 41t-120.5 41 q-25 0 -46.5 -22.5t-25.5 -51.5h-98z" />
<glyph unicode="&#xd6;" d="M90 608q0 141 34 270.5t101.5 238t185 174t271.5 65.5q156 0 274.5 -54.5t185 -146.5t99.5 -199.5t33 -226.5q0 -139 -34 -268t-102.5 -239.5t-186 -177.5t-269.5 -67q-160 0 -278.5 55.5t-185 148.5t-97.5 199.5t-31 227.5zM317 766q-2 -178 34 -334t122 -266.5 t209 -110.5q367 0 367 523q0 178 -37 332.5t-123 262t-209 107.5q-193 0 -278 -142.5t-85 -371.5zM365 1528q0 49 33.5 83t82.5 34t84 -34t35 -83t-35 -83t-84 -34t-82.5 34t-33.5 83zM741 1528q0 49 35 83t82 34q49 0 84 -34t35 -83t-35 -83t-84 -34q-47 0 -82 34t-35 83z " />
<glyph unicode="&#xd7;" horiz-adv-x="821" d="M90 199l260 260l-260 262l70 67l262 -258l262 261l70 -66l-262 -264l264 -264l-74 -72l-260 262l-262 -260z" />
<glyph unicode="&#xd8;" d="M90 608q0 141 34 270.5t101.5 238t185 174t271.5 65.5q215 0 356 -105l99 140h125l-146 -207q158 -172 158 -455q0 -139 -34 -268t-102.5 -239.5t-186 -177.5t-269.5 -67q-211 0 -352 99l-92 -131h-123l139 194q-164 172 -164 469zM317 766q-4 -252 66 -440l553 780 q-100 174 -256 174q-193 0 -278 -142.5t-85 -371.5zM434 221q96 -166 248 -166q367 0 367 523q0 238 -64 421z" />
<glyph unicode="&#xd9;" horiz-adv-x="1302" d="M47 1253v84h543v-84h-162v-866q0 -154 73.5 -235.5t196.5 -81.5q137 0 230.5 75.5t93.5 219.5v888h-170v84h440v-84h-164v-886q0 -178 -116.5 -284t-321.5 -106q-211 0 -345 115t-134 316v845h-164zM496 1614l125 131l309 -326h-127z" />
<glyph unicode="&#xda;" horiz-adv-x="1302" d="M47 1253v84h543v-84h-162v-866q0 -154 73.5 -235.5t196.5 -81.5q137 0 230.5 75.5t93.5 219.5v888h-170v84h440v-84h-164v-886q0 -178 -116.5 -284t-321.5 -106q-211 0 -345 115t-134 316v845h-164zM479 1419l307 326l127 -131l-309 -195h-125z" />
<glyph unicode="&#xdb;" horiz-adv-x="1302" d="M47 1253v84h543v-84h-162v-866q0 -154 73.5 -235.5t196.5 -81.5q137 0 230.5 75.5t93.5 219.5v888h-170v84h440v-84h-164v-886q0 -178 -116.5 -284t-321.5 -106q-211 0 -345 115t-134 316v845h-164zM373 1421l321 334l324 -334h-121l-203 125l-202 -125h-119z" />
<glyph unicode="&#xdc;" horiz-adv-x="1302" d="M47 1253v84h543v-84h-162v-866q0 -154 73.5 -235.5t196.5 -81.5q137 0 230.5 75.5t93.5 219.5v888h-170v84h440v-84h-164v-886q0 -178 -116.5 -284t-321.5 -106q-211 0 -345 115t-134 316v845h-164zM375 1532q0 49 33.5 83t83 34t84 -34t34.5 -83t-34.5 -83t-84 -34 t-83 34t-33.5 83zM752 1532q0 49 34.5 83t81.5 34q49 0 84 -34t35 -83t-34.5 -83t-84.5 -34q-47 0 -81.5 34t-34.5 83z" />
<glyph unicode="&#xdd;" horiz-adv-x="1228" d="M25 1253v84h557v-84h-162l264 -542l283 542h-181v84h471v-84h-188l-326 -639v-528h201v-86h-616v86h196v477l-340 690h-159zM424 1432l307 325l127 -131l-309 -194h-125z" />
<glyph unicode="&#xde;" horiz-adv-x="1155" d="M61 0v86h160v1167h-160v84h539v-84h-160v-192h232q207 0 312.5 -99.5t105.5 -252.5q0 -158 -114 -263.5t-304 -105.5h-232v-254h160v-86h-539zM440 430h207q88 0 146.5 78t58.5 197q0 123 -56.5 198.5t-148.5 75.5h-207v-549z" />
<glyph unicode="&#xdf;" horiz-adv-x="1054" d="M43 0v78h123v909q0 156 91 251t253 95q184 0 268 -88t84 -207q0 -76 -49 -134t-139 -122q-49 -35 -49 -84q0 -41 59 -80l199 -139q135 -94 135 -235q0 -109 -97.5 -186.5t-240.5 -77.5q-127 0 -240 88l62 65q102 -76 178 -76q66 0 105.5 47.5t39.5 112.5q0 74 -63 121 l-52 39l-106 80q-39 33 -59.5 52t-41 64t-20.5 99q0 90 95 176q29 27 37 36t27.5 34.5t26.5 53t7 62.5q0 96 -40 159.5t-126 63.5q-68 0 -111 -47t-43 -133v-1077h-313z" />
<glyph unicode="&#xe0;" horiz-adv-x="987" d="M98 223q0 156 217 230l324 106v68q0 125 -32 183t-107 58q-82 0 -122 -45t-32 -114l10 -93h-204q-16 96 32 175q92 150 318 149q340 0 340 -313v-514q0 -47 43 -41q33 6 69 30l35 -63q-90 -63 -186 -64q-45 0 -84 20.5t-55 41.5l-17 20q-96 -82 -227 -82q-322 0 -322 248 zM291 1235l125 131l309 -326h-127zM313 223q0 -59 36 -110.5t100 -51.5q92 0 190 89v325l-213 -72q-113 -41 -113 -180z" />
<glyph unicode="&#xe1;" horiz-adv-x="987" d="M98 223q0 156 217 230l324 106v68q0 125 -32 183t-107 58q-82 0 -122 -45t-32 -114l10 -93h-204q-16 96 32 175q92 150 318 149q340 0 340 -313v-514q0 -47 43 -41q33 6 69 30l35 -63q-90 -63 -186 -64q-45 0 -84 20.5t-55 41.5l-17 20q-96 -82 -227 -82q-322 0 -322 248 zM285 1040l307 326l127 -131l-309 -195h-125zM313 223q0 -59 36 -110.5t100 -51.5q92 0 190 89v325l-213 -72q-113 -41 -113 -180z" />
<glyph unicode="&#xe2;" horiz-adv-x="987" d="M98 223q0 156 217 230l324 106v68q0 125 -32 183t-107 58q-82 0 -122 -45t-32 -114l10 -93h-204q-16 96 32 175q92 150 318 149q340 0 340 -313v-514q0 -47 43 -41q33 6 69 30l35 -63q-90 -63 -186 -64q-45 0 -84 20.5t-55 41.5l-17 20q-96 -82 -227 -82q-322 0 -322 248 zM178 1057l322 334l323 -334h-121l-202 125l-203 -125h-119zM313 223q0 -59 36 -110.5t100 -51.5q92 0 190 89v325l-213 -72q-113 -41 -113 -180z" />
<glyph unicode="&#xe3;" horiz-adv-x="987" d="M98 223q0 156 217 230l324 106v68q0 125 -32 183t-107 58q-82 0 -122 -45t-32 -114l10 -93h-204q-16 96 32 175q92 150 318 149q340 0 340 -313v-514q0 -47 43 -41q33 6 69 30l35 -63q-90 -63 -186 -64q-45 0 -84 20.5t-55 41.5l-17 20q-96 -82 -227 -82q-322 0 -322 248 zM201 1110q16 84 69.5 138.5t139.5 54.5q55 0 133 -37q90 -41 123 -41q23 0 44 21.5t25 49.5h99q-16 -84 -66.5 -139t-132.5 -55q-53 0 -143.5 41t-120.5 41q-25 0 -46.5 -22.5t-25.5 -51.5h-98zM313 223q0 -59 36 -110.5t100 -51.5q92 0 190 89v325l-213 -72 q-113 -41 -113 -180z" />
<glyph unicode="&#xe4;" horiz-adv-x="987" d="M98 223q0 156 217 230l324 106v68q0 125 -32 183t-107 58q-82 0 -122 -45t-32 -114l10 -93h-204q-16 96 32 175q92 150 318 149q340 0 340 -313v-514q0 -47 43 -41q33 6 69 30l35 -63q-90 -63 -186 -64q-45 0 -84 20.5t-55 41.5l-17 20q-96 -82 -227 -82q-322 0 -322 248 zM174 1212.5q0 49.5 34 83t83 33.5t84 -33.5t35 -83t-35 -83t-84 -33.5t-83 33.5t-34 83zM313 223q0 -59 36 -110.5t100 -51.5q92 0 190 89v325l-213 -72q-113 -41 -113 -180zM551 1212.5q0 49.5 35 83t82 33.5q49 0 83.5 -33.5t34.5 -83t-34.5 -83t-83.5 -33.5 q-47 0 -82 33.5t-35 83z" />
<glyph unicode="&#xe5;" horiz-adv-x="987" d="M98 223q0 156 217 230l324 106v68q0 125 -32 183t-107 58q-82 0 -122 -45t-32 -114l10 -93h-204q-16 96 32 175q92 150 318 149q340 0 340 -313v-514q0 -47 43 -41q33 6 69 30l35 -63q-90 -63 -186 -64q-45 0 -84 20.5t-55 41.5l-17 20q-96 -82 -227 -82q-322 0 -322 248 zM307 1235q0 72 53.5 123t126.5 51q72 0 124.5 -51t52.5 -123q0 -74 -52.5 -127t-124 -53t-126 53t-54.5 127zM313 223q0 -59 36 -110.5t100 -51.5q92 0 190 89v325l-213 -72q-113 -41 -113 -180zM379 1233q0 -43 30.5 -77t77.5 -34q41 0 73 34t32 77q0 41 -32 74.5 t-73 33.5q-47 0 -77.5 -32.5t-30.5 -75.5z" />
<glyph unicode="&#xe6;" horiz-adv-x="1501" d="M88 229q0 166 219 232l332 98v64q0 125 -34 184t-118 59q-76 0 -112.5 -51t-28.5 -104l6 -80h-200q-4 33 7 84t25 76q90 150 310 149q195 0 278 -104q100 104 287 104q199 0 296 -120t97 -333h-604q0 -164 62.5 -290.5t172.5 -126.5q74 0 138.5 44t99.5 111l86 -53 q-119 -195 -350 -195q-207 0 -320 123q-115 -123 -311 -123q-145 0 -241.5 64.5t-96.5 187.5zM303 231q0 -63 42 -116.5t110 -53.5q145 0 225 125q-41 84 -41 234v57l-225 -67q-111 -38 -111 -179zM852 565h375q14 301 -168 301q-197 0 -207 -301z" />
<glyph unicode="&#xe7;" horiz-adv-x="921" d="M111 416q0 135 41 249.5t139 194.5t237 80q287 0 353 -254h-203q-33 178 -150 178q-211 0 -211 -342q0 -188 61.5 -319t186.5 -131q154 0 223 170l82 -21q-88 -244 -338 -244q-111 0 -195.5 38t-131.5 102.5t-70.5 139.5t-23.5 159zM246 -283l227 201h117l-211 -332z" />
<glyph unicode="&#xe8;" horiz-adv-x="978" d="M109 420q0 135 40.5 248.5t139 192.5t239.5 79q205 0 304.5 -119t99.5 -334h-613q2 -166 63.5 -290.5t180.5 -124.5q156 0 238 166l86 -23q-102 -238 -348 -238q-113 0 -199 39t-135 103.5t-72.5 140.5t-23.5 160zM301 1235l125 131l309 -326h-127zM319 565h375 q14 301 -166 301q-195 0 -209 -301z" />
<glyph unicode="&#xe9;" horiz-adv-x="978" d="M109 420q0 135 40.5 248.5t139 192.5t239.5 79q205 0 304.5 -119t99.5 -334h-613q2 -166 63.5 -290.5t180.5 -124.5q156 0 238 166l86 -23q-102 -238 -348 -238q-113 0 -199 39t-135 103.5t-72.5 140.5t-23.5 160zM319 565h375q14 301 -166 301q-195 0 -209 -301z M324 1040l307 326l127 -131l-309 -195h-125z" />
<glyph unicode="&#xea;" horiz-adv-x="978" d="M109 420q0 135 40.5 248.5t139 192.5t239.5 79q205 0 304.5 -119t99.5 -334h-613q2 -166 63.5 -290.5t180.5 -124.5q156 0 238 166l86 -23q-102 -238 -348 -238q-113 0 -199 39t-135 103.5t-72.5 140.5t-23.5 160zM201 1057l321 334l324 -334h-121l-203 125l-203 -125 h-118zM319 565h375q14 301 -166 301q-195 0 -209 -301z" />
<glyph unicode="&#xeb;" horiz-adv-x="978" d="M109 420q0 135 40.5 248.5t139 192.5t239.5 79q205 0 304.5 -119t99.5 -334h-613q2 -166 63.5 -290.5t180.5 -124.5q156 0 238 166l86 -23q-102 -238 -348 -238q-113 0 -199 39t-135 103.5t-72.5 140.5t-23.5 160zM209 1212.5q0 49.5 33.5 83t83 33.5t84 -33.5t34.5 -83 t-34.5 -83t-84 -33.5t-83 33.5t-33.5 83zM319 565h375q14 301 -166 301q-195 0 -209 -301zM586 1212.5q0 49.5 34.5 83t81.5 33.5q49 0 84 -33.5t35 -83t-34.5 -83t-84.5 -33.5q-47 0 -81.5 33.5t-34.5 83z" />
<glyph unicode="&#xec;" horiz-adv-x="591" d="M57 0v76h162v772h-145v70l346 22v-864h160v-76h-523zM106 1235l125 131l310 -326h-127z" />
<glyph unicode="&#xed;" horiz-adv-x="591" d="M57 0v76h162v772h-145v70l346 22v-864h160v-76h-523zM61 1040l308 326l127 -131l-310 -195h-125z" />
<glyph unicode="&#xee;" horiz-adv-x="645" d="M45 1057l322 334l323 -334h-121l-202 125l-203 -125h-119zM111 0v76h161v772h-145v70l346 22v-864h160v-76h-522z" />
<glyph unicode="&#xef;" horiz-adv-x="653" d="M27 1212.5q0 49.5 33.5 83t83 33.5t84 -33.5t34.5 -83t-34.5 -83t-84 -33.5t-83 33.5t-33.5 83zM92 0v76h162v772h-145v70l346 22v-864h159v-76h-522zM403 1212.5q0 49.5 35 83t82 33.5q49 0 84 -33.5t35 -83t-35 -83t-84 -33.5q-47 0 -82 33.5t-35 83z" />
<glyph unicode="&#xf0;" horiz-adv-x="1015" d="M109 418q0 213 105 367.5t314 154.5q150 0 230 -143q-39 231 -166 360l-242 -133l-41 63l221 121q-131 86 -329 86v76q252 12 430 -108l217 118l39 -63l-191 -103q258 -229 254 -700q0 -209 -110.5 -373t-311.5 -164q-115 0 -198.5 38t-130.5 103.5t-68.5 140.5 t-21.5 159zM319 526q0 -86 12.5 -168t36 -152.5t65.5 -112.5t95 -42q211 0 211 344q0 190 -54 330.5t-157 140.5q-209 0 -209 -340z" />
<glyph unicode="&#xf1;" horiz-adv-x="1089" d="M68 0v74h129v772h-129v69l327 25v-82q84 84 232 84q188 0 258.5 -87t70.5 -232v-549h127v-74h-458v74h131v549q0 236 -158 235q-84 0 -143.5 -58.5t-59.5 -174.5v-551h129v-74h-456zM254 1110q16 84 69.5 138.5t139.5 54.5q55 0 133 -37q90 -41 123 -41q23 0 44 21.5 t25 49.5h99q-16 -84 -66.5 -139t-132.5 -55q-53 0 -143 41t-121 41q-25 0 -46.5 -22.5t-25.5 -51.5h-98z" />
<glyph unicode="&#xf2;" horiz-adv-x="1015" d="M109 418q0 213 105 367.5t314 154.5q111 0 196 -38t132 -102.5t70.5 -139t23.5 -158.5q0 -131 -43 -247t-142 -197t-237 -81q-115 0 -198.5 38t-130.5 103.5t-68.5 140.5t-21.5 159zM307 1235l125 131l309 -326h-127zM319 526q0 -86 12.5 -168t36 -152.5t65.5 -112.5 t95 -42q211 0 211 344q0 190 -54 330.5t-157 140.5q-209 0 -209 -340z" />
<glyph unicode="&#xf3;" horiz-adv-x="1015" d="M109 418q0 213 105 367.5t314 154.5q111 0 196 -38t132 -102.5t70.5 -139t23.5 -158.5q0 -131 -43 -247t-142 -197t-237 -81q-115 0 -198.5 38t-130.5 103.5t-68.5 140.5t-21.5 159zM285 1040l307 326l127 -131l-309 -195h-125zM319 526q0 -86 12.5 -168t36 -152.5 t65.5 -112.5t95 -42q211 0 211 344q0 190 -54 330.5t-157 140.5q-209 0 -209 -340z" />
<glyph unicode="&#xf4;" horiz-adv-x="1011" d="M106 418q0 213 105.5 367.5t314.5 154.5q111 0 196 -38t132 -102.5t70.5 -139t23.5 -158.5q0 -131 -43 -247t-142 -197t-237 -81q-115 0 -198.5 38t-130.5 103.5t-69 140.5t-22 159zM203 1057l321 334l324 -334h-121l-203 125l-202 -125h-119zM317 526q0 -86 12.5 -168 t36 -152.5t65.5 -112.5t95 -42q211 0 211 344q0 190 -54 330.5t-157 140.5q-209 0 -209 -340z" />
<glyph unicode="&#xf5;" horiz-adv-x="1011" d="M106 418q0 213 105.5 367.5t314.5 154.5q111 0 196 -38t132 -102.5t70.5 -139t23.5 -158.5q0 -131 -43 -247t-142 -197t-237 -81q-115 0 -198.5 38t-130.5 103.5t-69 140.5t-22 159zM207 1110q16 84 69.5 138.5t139.5 54.5q55 0 133 -37q90 -41 123 -41q23 0 44 21.5 t25 49.5h99q-16 -84 -66.5 -139t-132.5 -55q-53 0 -143 41t-121 41q-25 0 -46.5 -22.5t-25.5 -51.5h-98zM317 526q0 -86 12.5 -168t36 -152.5t65.5 -112.5t95 -42q211 0 211 344q0 190 -54 330.5t-157 140.5q-209 0 -209 -340z" />
<glyph unicode="&#xf6;" horiz-adv-x="1015" d="M109 418q0 213 105 367.5t314 154.5q111 0 196 -38t132 -102.5t70.5 -139t23.5 -158.5q0 -131 -43 -247t-142 -197t-237 -81q-115 0 -198.5 38t-130.5 103.5t-68.5 140.5t-21.5 159zM203 1212.5q0 49.5 33.5 83t83 33.5t84 -33.5t34.5 -83t-34.5 -83t-84 -33.5t-83 33.5 t-33.5 83zM319 526q0 -86 12.5 -168t36 -152.5t65.5 -112.5t95 -42q211 0 211 344q0 190 -54 330.5t-157 140.5q-209 0 -209 -340zM580 1212.5q0 49.5 34.5 83t81.5 33.5q49 0 84 -33.5t35 -83t-35 -83t-84 -33.5q-47 0 -81.5 33.5t-34.5 83z" />
<glyph unicode="&#xf7;" horiz-adv-x="1009" d="M90 410v94h838v-94h-838zM365 100.5q0 55.5 36.5 92t92 36.5t92.5 -36.5t37 -92t-37 -92.5t-92.5 -37t-92 37t-36.5 92.5zM365 799q0 57 36.5 94t92 37t92.5 -37t37 -94q0 -53 -37 -91t-92.5 -38t-92 38t-36.5 91z" />
<glyph unicode="&#xf8;" horiz-adv-x="1015" d="M109 418q0 213 105 367.5t314 154.5q113 0 199 -41l102 180h111l-135 -231q145 -117 145 -346q0 -131 -43 -247t-142 -197t-237 -81q-115 0 -198 39l-103 -178h-110l131 228q-139 114 -139 352zM319 526q0 -156 33 -278l305 532q-53 86 -129 86q-209 0 -209 -340z M399 137q55 -86 129 -86q211 0 211 344q0 147 -34 275z" />
<glyph unicode="&#xf9;" horiz-adv-x="1107" d="M55 846v74h328v-623q0 -236 158 -236q84 0 143 57.5t59 176.5v551h-129v74h328v-846h129v-70l-328 -24v83q-86 -86 -231 -86q-188 0 -259 86.5t-71 233.5v549h-127zM322 1235l124 131l310 -326h-127z" />
<glyph unicode="&#xfa;" horiz-adv-x="1107" d="M55 846v74h328v-623q0 -236 158 -236q84 0 143 57.5t59 176.5v551h-129v74h328v-846h129v-70l-328 -24v83q-86 -86 -231 -86q-188 0 -259 86.5t-71 233.5v549h-127zM309 1040l307 326l127 -131l-309 -195h-125z" />
<glyph unicode="&#xfb;" horiz-adv-x="1107" d="M55 846v74h328v-623q0 -236 158 -236q84 0 143 57.5t59 176.5v551h-129v74h328v-846h129v-70l-328 -24v83q-86 -86 -231 -86q-188 0 -259 86.5t-71 233.5v549h-127zM221 1057l322 334l323 -334h-121l-202 125l-203 -125h-119z" />
<glyph unicode="&#xfc;" horiz-adv-x="1107" d="M55 846v74h328v-623q0 -236 158 -236q84 0 143 57.5t59 176.5v551h-129v74h328v-846h129v-70l-328 -24v83q-86 -86 -231 -86q-188 0 -259 86.5t-71 233.5v549h-127zM219 1212.5q0 49.5 34 83t83 33.5t84 -33.5t35 -83t-35 -83t-84 -33.5t-83 33.5t-34 83zM596 1212.5 q0 49.5 35 83t82 33.5q49 0 83.5 -33.5t34.5 -83t-34.5 -83t-83.5 -33.5q-47 0 -82 33.5t-35 83z" />
<glyph unicode="&#xfd;" horiz-adv-x="999" d="M10 846v74h457v-74h-131l235 -586l222 586h-131v74h346v-74h-115l-408 -1088q-43 -113 -94 -161t-147 -48q-115 0 -221 93l59 65q74 -74 162 -74q96 0 147 136l82 217l-356 860h-107zM309 1040l307 326l127 -131l-309 -195h-125z" />
<glyph unicode="&#xfe;" horiz-adv-x="1079" d="M16 -356h146v1687h-144v68l344 24v-559q86 76 220 76q217 0 323.5 -125t106.5 -311q0 -96 -25.5 -186.5t-75 -168t-132.5 -125t-187 -47.5q-139 0 -230 82v-415h146v-74h-492v74zM362 279q0 -104 67 -162t163 -58q211 0 211 340q0 197 -55.5 327t-165.5 130 q-88 0 -152.5 -52t-67.5 -167v-358z" />
<glyph unicode="&#xff;" horiz-adv-x="1003" d="M-6 846v74h457v-74h-132l236 -586l221 586h-131v74h346v-74h-114l-408 -1088q-43 -113 -94 -161t-148 -48q-115 0 -221 93l60 65q74 -74 161 -74q96 0 148 136l82 217l-357 860h-106zM188 1212.5q0 49.5 34 83t83 33.5t84 -33.5t35 -83t-35 -83t-84 -33.5t-83 33.5 t-34 83zM565 1212.5q0 49.5 35 83t82 33.5q49 0 84 -33.5t35 -83t-35 -83t-84 -33.5q-47 0 -82 33.5t-35 83z" />
<glyph unicode="&#x152;" horiz-adv-x="1882" d="M90 610q0 145 34 273.5t101.5 235t185 171t271.5 68.5q82 0 180 -21h969v-364h-98l-107 280h-440v-495h276v143h111v-381h-111v144h-276v-578h456l54 136l55 143h96v-365h-999q-78 -20 -166 -20q-160 0 -278.5 55t-185 148t-97.5 199.5t-31 227.5zM317 768 q-2 -178 34 -333.5t122 -266.5t209 -111q213 0 287 152l-2 -2v833l2 -2q-35 111 -100.5 177.5t-188.5 66.5q-193 0 -278 -142.5t-85 -371.5z" />
<glyph unicode="&#x153;" horiz-adv-x="1615" d="M109 420q0 205 107.5 363.5t311.5 158.5q219 0 328 -139q4 4 12 16q111 121 295 121q203 0 302.5 -120t99.5 -333h-611q0 -162 65.5 -289.5t176.5 -127.5q72 0 137.5 44t100.5 111l84 -53q-115 -195 -349 -195q-223 0 -335 138q-125 -137 -306 -138q-217 0 -318 129.5 t-101 313.5zM319 528q-2 -119 18.5 -223t70 -179t120.5 -75q211 0 211 346q0 193 -53 332t-158 139q-209 0 -209 -340zM954 565h375q14 301 -166 301q-201 0 -209 -301z" />
<glyph unicode="&#x178;" horiz-adv-x="1228" d="M25 1253v84h557v-84h-162l264 -542l283 542h-181v84h471v-84h-188l-326 -639v-528h201v-86h-616v86h196v477l-340 690h-159zM319 1528q0 49 34 83t83 34t84 -34t35 -83t-35 -83t-84 -34t-83 34t-34 83zM696 1528q0 49 35 83t82 34q49 0 84 -34t35 -83t-35 -83t-84 -34 q-47 0 -82 34t-35 83z" />
<glyph unicode="&#x2c6;" horiz-adv-x="772" d="M90 1057l322 334l323 -334h-121l-202 125l-203 -125h-119z" />
<glyph unicode="&#x2dc;" horiz-adv-x="763" d="M90 1110q16 84 69.5 138.5t139.5 54.5q55 0 133 -37q90 -41 123 -41q23 0 44.5 21.5t25.5 49.5h98q-16 -84 -66.5 -139t-132.5 -55q-53 0 -143 41t-121 41q-25 0 -46 -22.5t-26 -51.5h-98z" />
<glyph unicode="&#x2013;" horiz-adv-x="841" d="M6 487v97h838v-97h-838z" />
<glyph unicode="&#x2014;" horiz-adv-x="1722" d="M55 487v97h1610v-97h-1610z" />
<glyph unicode="&#x2018;" horiz-adv-x="458" d="M109 1106q0 133 88 225q27 29 59.5 51.5t50.5 30.5l21 10l51 -51q-57 -35 -92 -72q-53 -53 -54 -112h17q47 0 82 -38t35 -87q0 -51 -36 -86t-87 -35q-57 0 -96 40t-39 124z" />
<glyph unicode="&#x2019;" horiz-adv-x="458" d="M96 999q57 35 92 72q53 53 54 113h-17q-47 0 -81.5 38t-34.5 87q0 51 35.5 86t86.5 35q57 0 96.5 -40t39.5 -124q0 -133 -88 -226q-27 -29 -60 -51t-51 -31l-21 -10z" />
<glyph unicode="&#x201a;" horiz-adv-x="458" d="M96 -207q57 35 92 72q53 53 54 112h-17q-47 0 -81.5 38t-34.5 87q0 51 35.5 86t86.5 35q57 0 96.5 -40t39.5 -124q0 -133 -88 -225q-27 -29 -60 -51.5t-51 -32.5l-21 -8z" />
<glyph unicode="&#x201c;" horiz-adv-x="780" d="M109 1106q0 133 88 225q27 29 59.5 51.5t50.5 30.5l21 10l51 -51q-57 -35 -92 -72q-53 -53 -54 -112h17q47 0 82 -38t35 -87q0 -51 -36 -86t-87 -35q-57 0 -96 40t-39 124zM426 1106q0 133 88 225q27 29 59.5 51.5t53.5 30.5l18 10l51 -51q-57 -35 -92 -72 q-53 -53 -53 -112h16q47 0 82 -38t35 -87q0 -51 -36 -86t-87 -35q-57 0 -96 40t-39 124z" />
<glyph unicode="&#x201d;" horiz-adv-x="780" d="M96 997q57 35 92 72q53 53 54 113h-17q-47 0 -81.5 37.5t-34.5 87.5q0 51 35.5 85.5t86.5 34.5q57 0 96.5 -39.5t39.5 -123.5q0 -133 -88 -226q-27 -29 -60 -51t-51 -33l-21 -8zM414 997q57 35 92 72q53 53 53 113h-16q-47 0 -82 37.5t-35 87.5q0 51 36 85.5t87 34.5 q57 0 96 -39.5t39 -123.5q0 -133 -88 -226q-27 -29 -59.5 -51t-53.5 -33l-18 -8z" />
<glyph unicode="&#x201e;" horiz-adv-x="780" d="M96 -207q57 35 92 72q53 53 54 112h-17q-47 0 -81.5 38t-34.5 87q0 51 35.5 86t86.5 35q57 0 96.5 -40t39.5 -124q0 -133 -88 -225q-27 -29 -60 -51.5t-51 -32.5l-21 -8zM414 -207q57 35 92 72q53 53 53 112h-16q-47 0 -82 38t-35 87q0 51 36 86t87 35q57 0 96 -40 t39 -124q0 -133 -88 -225q-27 -29 -59.5 -51.5t-53.5 -32.5l-18 -8z" />
<glyph unicode="&#x2022;" horiz-adv-x="507" d="M111 606q0 72 47 119t116 47q68 0 115 -48t47 -117.5t-47 -116t-115 -46.5q-72 0 -117.5 46t-45.5 116z" />
<glyph unicode="&#x2026;" horiz-adv-x="1347" d="M102 102.5q0 55.5 36 92t93 36.5q55 0 91 -36.5t36 -92t-35.5 -93.5t-91 -38t-92.5 38t-37 93.5zM553 102.5q0 55.5 36 92t93 36.5t93 -36.5t36 -92t-37 -93.5t-92 -38t-92 38t-37 93.5zM1006 102.5q0 55.5 35.5 92t91.5 36.5q57 0 93 -36.5t36 -92t-37 -93.5t-92.5 -38 t-91 38t-35.5 93.5z" />
<glyph unicode="&#x2039;" horiz-adv-x="628" d="M88 477l428 400l45 -50l-268 -350l268 -354l-45 -47z" />
<glyph unicode="&#x203a;" horiz-adv-x="628" d="M88 123l270 354l-270 350l47 50l426 -400l-426 -401z" />
<glyph unicode="&#x20ac;" horiz-adv-x="1234" d="M6 496v92h166v22q0 100 6 146h-172v90h187q51 231 194 371.5t379 140.5q264 0 420 -168v-219h-129q-16 158 -104.5 234.5t-188.5 76.5q-174 0 -261 -120t-102 -316h478v-90h-480q0 -100 11 -168h469v-92h-453q39 -190 125 -306t215 -116q203 0 330 147l71 -63 q-156 -178 -401 -178q-141 0 -250.5 41.5t-177.5 115.5t-106.5 163t-53.5 196h-172z" />
<glyph unicode="&#x2122;" horiz-adv-x="1214" d="M61 1176v153h426v-153h-59l-41 104h-61v-430h67v-47h-235v47h65v430h-59l-41 -104h-62zM537 803v47h59v428h-59v51h161l152 -381l143 381h160v-51h-57v-428h57v-47h-219v47h59v295q-25 -61 -67 -178l-62 -164h-65l-133 344v-297h57v-47h-186z" />
<glyph unicode="&#xe000;" horiz-adv-x="920" d="M0 920h920v-920h-920v920z" />
<glyph unicode="&#xfb01;" horiz-adv-x="1277" d="M68 0v74h145v772h-145v76h145v172q0 168 98.5 249.5t231.5 81.5t231 -88l-63 -63q-86 72 -156 72q-143 0 -143 -216v-208h278v-76h-278v-772h194v-74h-538zM752 0v74h161v772h-145v69l346 25v-866h162v-74h-524zM874 1204q0 55 40 94t100 39q57 0 97 -38.5t40 -94.5 q0 -59 -39 -99t-98.5 -40t-99.5 40t-40 99z" />
<glyph unicode="&#xfb02;" horiz-adv-x="1214" d="M68 0v74h145v772h-145v76h145v172q0 168 98.5 249.5t231.5 81.5t231 -88l-63 -63q-86 72 -156 72q-143 0 -143 -216v-208h278v-76h-278v-772h194v-74h-538zM727 1331v68l346 24v-1349h129v-74h-461v74h129v1257h-143z" />
<glyph unicode="&#xfb03;" horiz-adv-x="1943" d="M1394 0v74h162v772h-145v69l346 25v-866h161v-74h-524zM1517 1204q0 55 40 94t99 39q57 0 97.5 -38.5t40.5 -94.5q0 -59 -39 -99t-98.5 -40t-99.5 40t-40 99zM740 0v74h145v772h-145v76h145v172q0 168 98.5 249.5t231.5 81.5t231 -88l-63 -63q-86 72 -156 72 q-143 0 -143 -216v-208h278v-76h-278v-772h194v-74h-538zM68 0v74h145v772h-145v76h145v172q0 168 98.5 249.5t231.5 81.5t231 -88l-63 -63q-86 72 -156 72q-143 0 -143 -216v-208h278v-76h-278v-772h194v-74h-538z" />
<glyph unicode="&#xfb04;" horiz-adv-x="1880" d="M1380 1331v68l346 24v-1349h129v-74h-461v74h129v1257h-143zM740 0v74h145v772h-145v76h145v172q0 168 98.5 249.5t231.5 81.5t231 -88l-63 -63q-86 72 -156 72q-143 0 -143 -216v-208h278v-76h-278v-772h194v-74h-538zM68 0v74h145v772h-145v76h145v172 q0 168 98.5 249.5t231.5 81.5t231 -88l-63 -63q-86 72 -156 72q-143 0 -143 -216v-208h278v-76h-278v-772h194v-74h-538z" />
</font>
</defs>
</svg>
