<?xml version="1.0" standalone="no"?>
<!DOCTYPE svg PUBLIC "-//W3C//DTD SVG 1.1//EN" "http://www.w3.org/Graphics/SVG/1.1/DTD/svg11.dtd" >
<svg xmlns="http://www.w3.org/2000/svg">
<metadata>
This is a custom SVG webfont generated by Font Squirrel.
Copyright   : Copyright  by Binnenland 2006 All rights reserved This software may not be reproduced used displayed modified disclosed or transferred without the express written approval of Binnenland
Designer    : Binnenland Michael Mischler  Niklaus Thoenen
Foundry URL : wwwbinnenlandch
</metadata>
<defs>
<font id="CatalogProRegular" horiz-adv-x="1327" >
<font-face units-per-em="2048" ascent="1536" descent="-512" />
<missing-glyph horiz-adv-x="587" />
<glyph unicode=" "  horiz-adv-x="587" />
<glyph unicode="&#x09;" horiz-adv-x="587" />
<glyph unicode="&#xa0;" horiz-adv-x="587" />
<glyph unicode="!" horiz-adv-x="491" d="M123 94q0 53 35 88t88 35t88 -35t35 -88t-35 -88t-88 -35t-88 35t-35 88zM158 1350h180l-37 -920h-106z" />
<glyph unicode="&#x22;" horiz-adv-x="585" d="M102 1014v428h152l-102 -428h-50zM352 1442h152l-103 -428h-47z" />
<glyph unicode="#" horiz-adv-x="1280" d="M61 446v82h273l106 332h-327v82h354l149 463h89l-150 -463h324l149 463h88l-149 -463h252v-82h-279l-109 -332h336v-82h-362l-162 -499h-86l162 499h-326l-160 -499h-88l162 499h-246zM420 528h325l107 332h-324z" />
<glyph unicode="$" horiz-adv-x="999" d="M88 119v246h121q20 -172 91 -246t189 -74q123 0 194 67.5t71 180.5q0 117 -90 178l-416 266q-160 104 -160 303q0 135 99.5 225.5t267.5 100.5v160h73v-158q233 -12 351 -133v-248h-125q-16 178 -80 247t-185 69q-123 0 -183 -67t-60 -167q0 -109 94 -166l401 -254 q178 -113 179 -315q0 -143 -106.5 -243.5t-285.5 -110.5v-156h-73v153q-256 13 -367 142z" />
<glyph unicode="%" horiz-adv-x="1398" d="M51 995q0 168 76 261.5t186 93.5q113 0 189 -89.5t76 -265.5q0 -170 -76 -263t-189 -93q-111 0 -186.5 90t-75.5 266zM176 995q0 -295 137 -295q139 0 140 295q0 293 -140 293q-137 0 -137 -293zM385 -53l524 1458h88l-522 -1458h-90zM821 356q0 170 76 262.5t186 92.5 q113 0 189 -89.5t76 -265.5q0 -170 -77 -263t-187.5 -93t-186.5 91t-76 265zM946 356q0 -293 137 -293q139 0 140 293q0 295 -140 295q-137 0 -137 -295z" />
<glyph unicode="&#x26;" horiz-adv-x="1183" d="M100 377q0 133 78 233.5t191 122.5q-164 92 -164 293q0 154 100.5 248t261.5 94q102 0 198.5 -34t149.5 -93v-233h-118q-16 168 -72.5 232.5t-161.5 64.5q-102 0 -151.5 -69t-49.5 -177q-2 -129 50.5 -221.5t156.5 -92.5v-59h-22q-129 0 -194.5 -87t-65.5 -224 q0 -164 76.5 -246t201.5 -82q137 0 208 81t71 194q0 68 -25.5 127t-73.5 75h-127v62h463v-62h-131q29 -29 48.5 -85t19.5 -107q0 -150 -121 -252.5t-332 -102.5q-197 0 -331 99.5t-134 300.5z" />
<glyph unicode="'" horiz-adv-x="337" d="M102 1442h154l-102 -428h-50z" />
<glyph unicode="(" horiz-adv-x="563" d="M133 639q0 535 359 770l30 -29q-106 -88 -174.5 -290.5t-68.5 -448.5t68.5 -448.5t174.5 -290.5l-30 -29q-359 236 -359 766z" />
<glyph unicode=")" horiz-adv-x="563" d="M41 -98q106 88 175 290.5t69 448.5t-69 448.5t-175 290.5l31 29q358 -236 358 -770q0 -530 -358 -766z" />
<glyph unicode="*" horiz-adv-x="956" d="M84 809l350 147l-350 150l70 119l301 -230l-45 375h137l-47 -375l303 228l69 -117l-348 -150l348 -147l-67 -119l-305 230l47 -381h-137l45 381l-303 -232z" />
<glyph unicode="+" horiz-adv-x="1005" d="M84 496v79h379v381h80v-381h379v-79h-379v-377h-80v377h-379z" />
<glyph unicode="," horiz-adv-x="450" d="M94 -221q57 37 88 67q59 59 58 134q-8 -2 -25 -3q-45 0 -79 35t-34 82q0 49 34 82t83 33q55 0 92 -39t37 -121q0 -133 -88 -221q-63 -63 -125 -90z" />
<glyph unicode="-" horiz-adv-x="616" d="M84 498v80h448v-80h-448z" />
<glyph unicode="." horiz-adv-x="438" d="M96 94q0 53 36 88t87 35t87 -35t36 -88t-36 -88t-87 -35t-87 35t-36 88z" />
<glyph unicode="/" horiz-adv-x="854" d="M51 -53l666 1458h86l-666 -1458h-86z" />
<glyph unicode="0" horiz-adv-x="1224" d="M123 580q0 356 144.5 545.5t367.5 189.5q199 0 333 -153.5t134 -442.5q0 -358 -144.5 -547.5t-367.5 -189.5q-145 0 -254 87t-161 221t-52 290zM299 788q0 -125 13.5 -239.5t48 -235t105.5 -193.5t173 -73q287 0 287 467q0 131 -15.5 250t-50.5 233.5t-104.5 183 t-167.5 68.5q-289 0 -289 -461z" />
<glyph unicode="1" horiz-adv-x="847" d="M127 1059l358 239h37v-1224h191v-72h-541v72h188v1042l-190 -121z" />
<glyph unicode="2" horiz-adv-x="1011" d="M68 1096q141 225 389 225q166 0 291.5 -94t125.5 -269q0 -63 -18 -119.5t-60 -113.5t-79 -98t-106.5 -112l-108.5 -114l-221 -239h612v-160h-799v68l371 419q236 270 235 463q0 123 -68.5 201t-178.5 78q-94 0 -177 -48t-133 -130z" />
<glyph unicode="3" horiz-adv-x="1024" d="M74 145l67 60q104 -129 312 -129q121 0 203.5 70.5t82.5 222.5q0 131 -73.5 204.5t-196.5 73.5h-66v64q113 0 207.5 73.5t94.5 204.5q0 117 -66 176.5t-164 59.5q-190 0 -295 -162l-74 45q135 211 369 211q160 0 278.5 -89t118.5 -255q0 -86 -56 -166t-138 -117 q238 -76 237 -305q0 -193 -141 -299t-321 -106q-234 -1 -379 163z" />
<glyph unicode="4" horiz-adv-x="1159" d="M78 299v82l649 917h107v-862h225v-137h-225v-297h-164v297h-592zM213 436h457v651z" />
<glyph unicode="5" horiz-adv-x="1064" d="M92 145l66 60q111 -135 313 -135q123 0 204 85t81 253q0 125 -74 196.5t-195 71.5h-333l108 622h615v-159h-564l-55 -322h229q199 0 322 -97t123 -312q0 -199 -141.5 -313.5t-319.5 -114.5q-236 -1 -379 165z" />
<glyph unicode="6" horiz-adv-x="1132" d="M109 578q0 346 167.5 545.5t382.5 199.5q197 0 330 -152l-61 -55q-96 123 -266 123q-162 0 -255.5 -153.5t-103.5 -380.5q27 51 110 101t181 50q188 0 314 -112.5t126 -333.5q0 -182 -132 -305t-308 -123q-227 0 -356 177t-129 419zM301 526q8 -215 80 -347t215 -132 q111 0 186.5 102.5t75.5 258.5q0 180 -73.5 276t-190.5 96q-92 0 -179 -66.5t-114 -187.5z" />
<glyph unicode="7" horiz-adv-x="968" d="M66 971v327h860v-71l-566 -1225h-108l528 1139h-573l-72 -170h-69z" />
<glyph unicode="8" horiz-adv-x="1161" d="M119 358q0 127 75.5 216.5t190.5 119.5q-84 25 -151.5 108t-67.5 183q0 180 118.5 264t288.5 84t289 -84t119 -264q0 -100 -67.5 -183t-151.5 -108q115 -31 190.5 -120t75.5 -216q0 -195 -134 -293t-321 -98q-190 0 -322 97t-132 294zM299 356q0 -162 76 -242.5 t198.5 -80.5t198.5 81t76 242q0 133 -71.5 216t-203 83t-203 -83t-71.5 -216zM334 985q0 -115 67.5 -188.5t172 -73.5t172 73.5t67.5 188.5q0 135 -66.5 208t-173 73t-173 -73t-66.5 -208z" />
<glyph unicode="9" horiz-adv-x="1134" d="M94 889q0 182 132 305t309 123q227 0 356 -178t129 -420q0 -346 -159 -545t-374 -199q-197 0 -327 152l61 55q90 -115 264 -114q162 0 246 147t94 379q-27 -51 -109.5 -101.5t-180.5 -50.5q-188 0 -314.5 113t-126.5 334zM270 891q0 -180 74 -276.5t191 -96.5 q92 0 179 66.5t113 187.5q-8 215 -79.5 347t-215.5 132q-111 0 -186.5 -102t-75.5 -258z" />
<glyph unicode=":" horiz-adv-x="438" d="M96 94q0 53 36 88t87 35t87 -35t36 -88t-36 -88t-87 -35t-87 35t-36 88zM96 803q0 53 36 88t87 35t87 -35t36 -88t-36 -88t-87 -35t-87 35t-36 88z" />
<glyph unicode=";" horiz-adv-x="450" d="M94 -221q57 37 88 67q59 59 58 134q-8 -2 -25 -3q-45 0 -79 35t-34 82q0 49 34 82t83 33q55 0 92 -39t37 -121q0 -133 -88 -221q-63 -63 -125 -90zM102 803q0 51 35 86t88.5 35t87 -34t33.5 -87t-35 -88t-86 -35q-53 0 -88 35t-35 88z" />
<glyph unicode="&#x3c;" horiz-adv-x="1005" d="M84 492v88l838 329v-86l-734 -286l734 -289v-86z" />
<glyph unicode="=" horiz-adv-x="1005" d="M84 367v82h838v-82h-838zM84 629v82h838v-82h-838z" />
<glyph unicode="&#x3e;" horiz-adv-x="1005" d="M84 162v86l731 289l-731 286v86l838 -329v-88z" />
<glyph unicode="?" horiz-adv-x="966" d="M51 989v246q59 61 162.5 99t222.5 38q184 0 296 -93t112 -237q0 -74 -28 -135t-50.5 -84.5l-79.5 -79.5l-147 -145q-88 -88 -88 -168h-93q0 96 20.5 138t98.5 130l141 162q66 80 66 211q0 98 -60.5 165t-183.5 67t-193.5 -69t-86.5 -245h-109zM291 94q0 53 34.5 88t88 35 t88.5 -35t35 -88t-35 -88t-88.5 -35t-88 35t-34.5 88z" />
<glyph unicode="@" horiz-adv-x="1959" d="M84 459q0 379 269.5 648t647.5 269q375 0 625 -237.5t250 -579.5q0 -236 -133 -413t-313 -177q-213 0 -244 150q-123 -141 -299 -142q-109 0 -184.5 40t-108.5 103.5t-45 143.5t6 160q39 260 186 403q123 119 299 119q162 0 230 -104l12 84h156l-103 -674 q-14 -94 13.5 -149.5t93.5 -55.5q141 0 243.5 156.5t102.5 355.5q0 309 -225.5 527.5t-561.5 218.5q-342 0 -585.5 -249t-243.5 -597t243.5 -597t585.5 -249q150 0 292.5 56.5t226.5 154.5l57 -53q-102 -106 -258 -168t-318 -62q-379 0 -648 269.5t-269 648.5zM725 306.5 q2 -107.5 49 -182.5t133 -75q100 0 179 61.5t98 184.5l51 336q20 129 -42.5 187.5t-162.5 58.5q-236 0 -293 -347q-14 -116 -12 -223.5z" />
<glyph unicode="A" horiz-adv-x="1304" d="M41 0v74h127l450 1276h93l454 -1276h121v-74h-418v74h121l-151 422h-435l-149 -422h129v-74h-342zM432 575h377l-191 531z" />
<glyph unicode="B" horiz-adv-x="1222" d="M55 0v74h181v1202h-181v74h645q150 0 247 -96.5t97 -235.5q0 -82 -51 -161t-127 -118q113 -31 183.5 -125t70.5 -225q0 -170 -114.5 -279.5t-303.5 -109.5h-647zM408 74h264q106 0 185 85t79 228q0 119 -75 204t-191 85h-262v-602zM408 758h235q98 0 161.5 69.5 t63.5 184.5q0 121 -67.5 192.5t-157.5 71.5h-235v-518z" />
<glyph unicode="C" horiz-adv-x="1148" d="M84 614q0 139 31.5 267.5t97.5 240t181.5 179t269.5 67.5q264 0 419 -164v-219h-125q-16 162 -101 240t-193 78q-209 0 -303.5 -146.5t-94.5 -384.5q0 -133 23.5 -257t70 -230.5t125 -170t179.5 -63.5q209 0 337 150l60 -51q-150 -172 -397 -173q-156 0 -273 55.5 t-181.5 149.5t-95 201.5t-30.5 230.5z" />
<glyph unicode="D" horiz-adv-x="1363" d="M55 0v74h181v1202h-181v74h645q154 0 269.5 -53.5t181.5 -147.5t97.5 -209t31.5 -250q0 -102 -19.5 -197.5t-64.5 -186.5t-110.5 -157.5t-165 -107.5t-220.5 -41h-645zM412 74h288q106 0 186.5 53t124.5 144t64.5 195.5t20.5 225.5q0 262 -98.5 423t-297.5 161h-288 v-1202z" />
<glyph unicode="E" horiz-adv-x="1153" d="M55 0v74h181v1202h-181v74h1010v-361h-74l-110 287h-473v-518h329v147h94v-377h-94v148h-329v-602h491l109 286h73v-360h-1026z" />
<glyph unicode="F" horiz-adv-x="1136" d="M55 0v74h181v1202h-181v74h1010v-361h-74l-110 287h-473v-518h329v147h94v-377h-94v148h-329v-602h180v-74h-533z" />
<glyph unicode="G" horiz-adv-x="1325" d="M84 614q0 141 31.5 269.5t96 240t181.5 178t271 66.5q143 0 255.5 -47t178.5 -117v-219h-125q-16 162 -106.5 240t-202.5 78q-209 0 -304.5 -147.5t-95.5 -383.5v-17q0 -171 38 -324q40 -161 134 -274.5t228 -113.5q127 0 212 87t85 216v150h-232v73h524v-73h-116v-496 h-176v119q-31 -53 -109 -97.5t-188 -44.5q-156 0 -274 55.5t-181.5 149.5t-94 201.5t-30.5 230.5z" />
<glyph unicode="H" horiz-adv-x="1378" d="M55 0v74h148v1202h-148v74h459v-74h-139v-522h626v522h-137v74h459v-74h-147v-1202h147v-74h-459v74h137v600h-626v-600h139v-74h-459z" />
<glyph unicode="I" horiz-adv-x="696" d="M55 0v74h203v1202h-203v74h586v-74h-211v-1202h211v-74h-586z" />
<glyph unicode="J" horiz-adv-x="690" d="M-123 -383l53 53q78 -68 189 -67q135 0 135 219v1454h-205v74h586v-74h-209v-1399q0 -170 -90 -256t-217 -86q-146 0 -242 82z" />
<glyph unicode="K" d="M55 0v74h150v1202h-150v74h486v-74h-162v-531h31l551 531h-152v74h442v-74h-172l-514 -502l619 -700h151v-74h-542v74h153l-516 588h-51v-588h162v-74h-486z" />
<glyph unicode="L" horiz-adv-x="1132" d="M51 0v74h180v1202h-180v74h543v-74h-191v-1202h506l109 286h74v-360h-1041z" />
<glyph unicode="M" horiz-adv-x="1667" d="M55 0v74h164v1200h-164v76h346l439 -1123l428 1123h344v-76h-160v-1200h160v-74h-494v74h160v1056l-430 -1128h-92l-2 -2l-447 1139v-1065h158v-74h-410z" />
<glyph unicode="N" horiz-adv-x="1320" d="M55 0v74h164v1200h-164v76h334l615 -1006v930h-166v76h428v-76h-172v-1274h-95l-692 1137v-1063h174v-74h-426z" />
<glyph unicode="O" d="M84 614q0 139 31.5 267.5t97.5 240t181.5 179t269.5 67.5q123 0 222 -37t164.5 -97t109.5 -143t63.5 -171.5t19.5 -184.5q0 -109 -19.5 -212t-64.5 -203.5t-109.5 -175t-165 -121t-220.5 -46.5q-156 0 -273 55.5t-181.5 149.5t-95 201.5t-30.5 230.5zM266 772v-17 q0 -171 38 -324q40 -161 134 -274.5t226 -113.5q211 0 305 146.5t94 392.5q0 182 -41 340.5t-134 269.5t-226 111q-141 0 -233.5 -75t-127.5 -188.5t-35 -267.5z" />
<glyph unicode="P" horiz-adv-x="1153" d="M55 0v74h164v1202h-164v74h596q199 0 300.5 -100.5t101.5 -254.5q0 -158 -108.5 -262t-293.5 -104h-260v-555h164v-74h-500zM391 707h236q100 0 166.5 80.5t66.5 203.5q0 127 -63.5 206t-169.5 79h-236v-569z" />
<glyph unicode="Q" d="M84 614q0 109 19.5 212.5t63.5 202.5t109.5 174t165 120t222.5 45q154 0 269.5 -54t181 -147.5t97 -202t31.5 -229.5q0 -156 -37 -298t-135 -267t-244 -172l84 -133q57 -90 99.5 -129t107.5 -39q106 0 193 82l47 -53q-102 -98 -240 -99q-268 0 -383 185l-102 163 q-147 6 -258 62.5t-172.5 151t-90 200.5t-28.5 225zM266 772q0 -133 23.5 -259t70 -233.5t125 -172t179.5 -64.5q211 0 305 145.5t94 391.5q0 182 -41 340.5t-134 269t-226 110.5q-109 0 -187 -40.5t-123 -115.5t-65.5 -167t-20.5 -205z" />
<glyph unicode="R" horiz-adv-x="1294" d="M55 0v74h162v1202h-162v74h594q201 0 301.5 -100.5t100.5 -254.5q0 -143 -84 -238t-230 -118l369 -565h158v-74h-320l-397 629h-156v-555h162v-74h-498zM391 707h236q98 0 165.5 80.5t67.5 203.5q0 127 -64.5 206t-168.5 79h-236v-569z" />
<glyph unicode="S" horiz-adv-x="1007" d="M88 119v246h121q20 -172 91 -246t189 -74q123 0 194 67.5t71 180.5q0 117 -90 178l-416 266q-160 104 -160 303q0 143 110.5 235.5t295.5 92.5q258 0 385 -133v-248h-125q-16 178 -80 247t-185 69q-123 0 -183 -67t-60 -167q0 -109 94 -166l401 -254q178 -113 179 -315 q0 -154 -118 -255.5t-313 -101.5q-139 0 -243.5 40.5t-157.5 101.5z" />
<glyph unicode="T" horiz-adv-x="1165" d="M61 989v361h1043v-361h-74l-110 287h-250v-1202h178v-74h-533v74h181v1202h-252l-109 -287h-74z" />
<glyph unicode="U" horiz-adv-x="1302" d="M45 1276v74h500v-74h-164v-887q0 -158 78 -244t200 -86q139 0 239.5 81t100.5 227v909h-161v74h417v-74h-161v-907q0 -176 -118 -284t-316.5 -108t-324.5 109t-126 283v907h-164z" />
<glyph unicode="V" horiz-adv-x="1361" d="M10 1276v74h531v-74h-176l364 -1020l363 1020h-170v74h426v-74h-170l-449 -1274h-94l-455 1274h-170z" />
<glyph unicode="W" horiz-adv-x="2009" d="M16 1276v74h531v-74h-182l319 -995l301 1060h86l344 -1060l305 995h-170v74h426v-74h-168l-393 -1276h-94l-334 1047l-301 -1047h-94l-412 1276h-164z" />
<glyph unicode="X" horiz-adv-x="1392" d="M20 0v74h191l391 588l-389 614h-168v74h565v-74h-178l287 -455l295 455h-166v74h461v-74h-197l-344 -528l430 -674h172v-74h-577v74h186l-326 514l-342 -514h170v-74h-461z" />
<glyph unicode="Y" horiz-adv-x="1226" d="M-2 1276v74h545v-74h-172l282 -580l299 580h-176v74h432v-74h-170l-338 -655v-547h205v-74h-577v74h200v493l-350 709h-180z" />
<glyph unicode="Z" horiz-adv-x="1126" d="M55 0v76l803 1200h-571l-111 -287h-74v361h951v-74l-803 -1202h637l110 286h74v-360h-1016z" />
<glyph unicode="[" horiz-adv-x="489" d="M143 -375v1817h346v-74h-210v-1669h210v-74h-346z" />
<glyph unicode="\" horiz-adv-x="710" d="M51 1405h90l523 -1458h-91z" />
<glyph unicode="]" horiz-adv-x="487" d="M0 -301h211v1669h-211v74h344v-1817h-344v74z" />
<glyph unicode="^" horiz-adv-x="839" d="M29 586l329 837h88l330 -837h-86l-289 731l-286 -731h-86z" />
<glyph unicode="_" horiz-adv-x="946" d="M51 -174h838v-80h-838v80z" />
<glyph unicode="`" horiz-adv-x="477" d="M2 1249l107 111l284 -301h-90z" />
<glyph unicode="a" horiz-adv-x="964" d="M92 221q0 68 51.5 128.5t153.5 94.5l340 111v74q0 131 -36 191.5t-130 60.5q-90 0 -132 -46q-34 -37 -34 -92q0 -13 2 -28l8 -86h-176q-3 18 -3 36q0 64 40 130q96 150 297 149q141 0 231.5 -72.5t90.5 -238.5v-537q0 -46 38 -46q10 0 21 3l66 31l24 -49 q-70 -59 -162 -60q-51 0 -85.5 26t-45.5 50l-10 25q-96 -100 -250 -101q-137 0 -218 59.5t-81 186.5zM262 221q0 -59 47 -114.5t117 -55.5q111 0 211 111v325l-242 -79q-133 -48 -133 -187z" />
<glyph unicode="b" horiz-adv-x="1081" d="M10 1354v59l301 21v-594q86 104 252 104q211 0 313.5 -125t102.5 -313q0 -129 -40 -245t-136 -200t-234 -84q-168 0 -258 113v-90h-153v1354h-148zM311 279q0 -109 76 -170.5t182 -61.5q240 0 240 354q0 205 -62.5 339t-187.5 134q-102 0 -175 -58t-73 -185v-352z" />
<glyph unicode="c" horiz-adv-x="944" d="M102 420q0 129 38 242.5t133.5 197.5t232.5 84q301 0 362 -258h-184q-10 86 -58 141.5t-120 55.5q-125 0 -181.5 -98.5t-56.5 -256.5q0 -186 75 -329.5t206 -143.5q98 0 156.5 60.5t76.5 130.5l66 -17q-10 -37 -30.5 -73.5t-59.5 -79.5t-103.5 -71t-146.5 -28 q-143 0 -237.5 68t-131.5 163t-37 212z" />
<glyph unicode="d" horiz-adv-x="1071" d="M102 422q0 92 22.5 180t68 167t127 127t186.5 48q160 0 246 -104v514h-148v59l303 21v-1434h-155v86q-78 -109 -246 -109q-209 0 -306.5 130.5t-97.5 314.5zM268 530v-19q0 -110 22 -206q24 -104 81 -181t143 -77q102 0 170 60.5t68 185.5v338q0 127 -73 186.5t-173 59.5 q-125 0 -181.5 -96.5t-56.5 -250.5z" />
<glyph unicode="e" horiz-adv-x="974" d="M102 422q0 94 24 183t70 167t125.5 125t184.5 47q197 0 292 -118.5t95 -329.5h-625q0 -162 79 -303.5t204 -141.5q104 0 167.5 62.5t82.5 132.5l65 -17q-27 -88 -112.5 -168.5t-239.5 -83.5q-143 0 -239.5 68t-134.5 165t-38 212zM268 563h432q1 21 1 40q0 280 -195 280 q-228 -1 -238 -320z" />
<glyph unicode="f" horiz-adv-x="665" d="M61 0v61h150v801h-150v62h150v184q0 166 94 248t219 82t221 -84l-47 -49q-76 72 -174 71q-160 0 -159 -231v-221h282v-62h-282v-801h198v-61h-502z" />
<glyph unicode="g" horiz-adv-x="1062" d="M82 -156q0 63 29.5 114.5t78.5 72.5q-72 47 -71.5 143t112.5 174q-98 74 -98 254q0 154 100.5 248t262.5 94q174 0 270 -96h221v-70h-172q43 -78 43 -176q0 -154 -101.5 -247t-260.5 -93q-131 0 -209 47q-68 -47 -68 -129q0 -49 36 -84t97 -35h70v-61h-86 q-98 -33 -98 -164q0 -106 68.5 -169.5t195.5 -63.5t196.5 63.5t69.5 169.5q0 133 -98 164h-105v61h436v-61h-145q68 -63 68 -156q0 -141 -111 -223t-311.5 -82t-310 82t-109.5 223zM291 625q0 -123 50 -211q52 -92 157 -92q3 0 5 -1q104 0 150 73q47 75 47 194 q-2 125 -58 211t-159 86q-100 0 -146 -70t-46 -190z" />
<glyph unicode="h" horiz-adv-x="1073" d="M31 1356v57l301 21v-592q82 104 260 104q176 0 243.5 -87t67.5 -230v-568h129v-61h-418v61h134v568q0 246 -185 245q-88 0 -159.5 -53t-71.5 -180v-580h131v-61h-416v61h131v1295h-147z" />
<glyph unicode="i" horiz-adv-x="608" d="M61 0v61h166v801h-149v60l303 20v-881h166v-61h-486zM180 1229q0 53 35 88t88 35t88 -35t35 -88t-35 -88t-88 -35t-88 35t-35 88z" />
<glyph unicode="j" horiz-adv-x="567" d="M-166 -377l47 51q74 -70 176 -69q160 0 160 221v1036h-151v60l303 20v-1071q0 -168 -93.5 -249t-218.5 -81q-131 0 -223 82zM158 1229q0 53 35.5 88t87 35t87 -35t35.5 -88t-35.5 -88t-87 -35t-87 35t-35.5 88z" />
<glyph unicode="k" horiz-adv-x="1046" d="M31 0v61h147v1295h-147v57l301 21v-902h26l347 330h-140v64h396v-64h-154l-309 -299l436 -502h123v-61h-453v61h121l-338 402h-55v-402h127v-61h-428z" />
<glyph unicode="l" horiz-adv-x="526" d="M31 1356v57l303 21v-1373h131v-61h-420v61h133v1295h-147z" />
<glyph unicode="m" horiz-adv-x="1568" d="M61 862v60l304 20v-100q74 102 233 102q184 0 248 -133q78 133 266 133q160 0 221.5 -86t61.5 -229v-568h133v-61h-393v61h104v568q0 246 -152 245q-76 0 -141 -51t-67 -170v-592h116v-61h-387v61h117v568q0 246 -152 245q-78 0 -143 -53t-65 -180v-580h108v-61h-397v61 h135v801h-150z" />
<glyph unicode="n" horiz-adv-x="1087" d="M61 0v61h132v801h-132v60l285 20v-100q82 102 258 102q178 0 246 -86t68 -229v-568h129v-61h-418v61h133v568q0 246 -187 245q-86 0 -157.5 -54t-71.5 -179v-580h131v-61h-416z" />
<glyph unicode="o" horiz-adv-x="1013" d="M102 422q0 129 38 242.5t133.5 197.5t232.5 84q141 0 235.5 -67.5t132 -162.5t37.5 -210q0 -94 -23.5 -184.5t-70.5 -169t-128 -127t-183 -48.5q-209 0 -306.5 130.5t-97.5 314.5zM268 530q0 -121 23.5 -228t79 -185t135.5 -78q240 0 239 360q0 125 -23.5 231.5 t-79.5 180.5t-136 74q-125 0 -181.5 -98.5t-56.5 -256.5z" />
<glyph unicode="p" horiz-adv-x="1077" d="M10 -377h150v1321h153v-104q86 104 248 104q209 0 311.5 -125t102.5 -313q0 -129 -38 -244t-133 -200t-233 -85q-168 0 -258 111v-465h148v-61h-451v61zM313 276q0 -109 76 -169t182 -60q240 0 240 354q0 205 -62.5 338t-187.5 133q-102 0 -175 -57t-73 -184v-355z" />
<glyph unicode="q" horiz-adv-x="1054" d="M102 422q0 92 22.5 180t68 167t126 127t187.5 48q160 0 246 -104v71l155 33v-1321h148v-61h-451v61h148v463q-82 -109 -246 -109q-209 0 -306.5 130.5t-97.5 314.5zM268 528v-19q0 -110 22 -206q24 -104 81 -180t143 -76q102 0 170 60.5t68 185.5v338q0 127 -73 185 t-173 58q-125 0 -181.5 -96t-56.5 -250z" />
<glyph unicode="r" horiz-adv-x="751" d="M61 862v60l285 20v-170q39 76 107.5 124t142.5 48q43 0 82 -11t55 -24l19 -12v-43l-103 -100q-43 61 -123 63q-78 0 -129 -57.5t-51 -147.5v-551h178v-61h-461v61h132v801h-134z" />
<glyph unicode="s" horiz-adv-x="872" d="M102 78v237h86q0 -143 70 -208.5t176 -65.5q88 0 140.5 45t52.5 115q0 78 -66 114l-315 183q-125 74 -125 213q0 100 86 166.5t229 66.5q92 0 177 -27.5t126 -70.5v-240h-88q0 276 -217 277q-88 0 -132 -45t-44 -107q0 -68 66 -106l307 -172q139 -78 139 -224 q0 -109 -92 -180.5t-244 -71.5q-113 0 -203 29t-129 72z" />
<glyph unicode="t" horiz-adv-x="679" d="M51 862v47l230 213h49v-196h309v-64h-309v-626q0 -188 137 -189q78 0 158 66l45 -52q-104 -84 -221 -84q-274 0 -275 269v616h-123z" />
<glyph unicode="u" horiz-adv-x="1087" d="M41 862v62h285v-629q0 -246 184 -246q88 0 159.5 53.5t71.5 180.5v579h-131v62h285v-863h131v-59l-285 -20v100q-82 -102 -260 -102t-244.5 86t-66.5 229v567h-129z" />
<glyph unicode="v" horiz-adv-x="952" d="M-10 862v62h418v-62h-138l260 -649l242 649h-125v62h314v-62h-109l-320 -862h-73l-365 862h-104z" />
<glyph unicode="w" horiz-adv-x="1458" d="M-10 862v62h422v-62h-131l245 -637l226 699h47l256 -699l219 637h-133v62h325v-62h-110l-305 -862h-72l-246 645l-207 -645h-73l-349 862h-114z" />
<glyph unicode="x" horiz-adv-x="1054" d="M43 0v63h133l264 396l-264 403h-123v62h424v-62h-115l177 -274l184 274h-100v62h301v-62h-115l-229 -340l305 -459h125v-63h-455v63h143l-215 328l-213 -328h113v-63h-340z" />
<glyph unicode="y" horiz-adv-x="960" d="M-4 -375l47 56q76 -70 160 -70q104 0 164 151l92 242l-355 858h-106v62h420v-62h-133l256 -641l239 641h-125v62h314v-62h-109l-418 -1112q-41 -111 -96 -161t-143 -50q-109 0 -207 86z" />
<glyph unicode="z" horiz-adv-x="907" d="M72 0v66l567 796h-373l-88 -231h-57v293h682v-60l-551 -801h438l88 234h58v-297h-764z" />
<glyph unicode="{" horiz-adv-x="567" d="M84 670v32q78 23 103.5 59t25.5 116v292q0 123 76 190.5t182 74.5l12 -33q-80 -20 -109.5 -68.5t-29.5 -138.5v-293q0 -96 -27.5 -144t-109.5 -71q82 -23 109.5 -71t27.5 -144v-293q0 -90 29.5 -138t109.5 -69l-12 -32q-106 6 -182 73.5t-76 190.5v293q0 80 -25.5 115.5 t-103.5 58.5z" />
<glyph unicode="|" horiz-adv-x="329" d="M123 -86v1524h84v-1524h-84z" />
<glyph unicode="}" horiz-adv-x="567" d="M84 -29q80 20 109.5 68.5t29.5 138.5v293q0 96 28 144.5t109 70.5q-82 23 -109.5 71t-27.5 144v293q0 90 -29.5 138t-109.5 69l12 33q106 -6 182 -74t76 -191v-292q0 -80 26 -116t103 -59v-32q-78 -23 -103.5 -59t-25.5 -115v-293q0 -123 -75.5 -190.5t-182.5 -73.5z" />
<glyph unicode="~" horiz-adv-x="935" d="M84 473q18 80 65.5 132t120.5 52q39 0 217.5 -41t221.5 -41q33 0 61.5 23t32.5 51h49q-39 -184 -176 -184q-43 0 -223.5 41t-223.5 41q-33 0 -61.5 -22.5t-32.5 -51.5h-51z" />
<glyph unicode="&#xa1;" horiz-adv-x="491" d="M123 827.5q0 53.5 35 88t88 34.5t88 -34.5t35 -88t-35 -88t-88 -34.5t-88 34.5t-35 88zM154 -420l36 920h107l37 -920h-180z" />
<glyph unicode="&#xa2;" horiz-adv-x="980" d="M102 641q0 123 35 232.5t121 193.5t211 96v187h84v-187q248 -23 315 -266h-184q-16 90 -62.5 148.5t-115.5 58.5q-125 0 -181.5 -98.5t-56.5 -255.5q0 -188 75 -333t204 -145q127 0 213 121l59 -41q-98 -137 -266 -151v-201h-84v201q-188 12 -277.5 138t-89.5 302z" />
<glyph unicode="&#xa3;" horiz-adv-x="1093" d="M41 0v76h178v692h-164v82h164v135q0 197 115 292t287 95q240 0 368 -135v-248h-125q-16 180 -72.5 248t-170.5 68q-111 0 -169.5 -79t-58.5 -231v-145h326v-82h-326v-692h447l108 284h74v-360h-981z" />
<glyph unicode="&#xa5;" horiz-adv-x="1267" d="M18 1276v74h545v-74h-172l283 -580l299 580h-176v74h432v-74h-170l-221 -426h233v-82h-274l-76 -147v-35h348v-82h-348v-430h205v-74h-578v74h201v430h-350v82h340l-90 182h-250v82h211l-211 426h-181z" />
<glyph unicode="&#xa6;" horiz-adv-x="839" d="M231 0v567h84v-567h-84zM231 782v568h84v-568h-84z" />
<glyph unicode="&#xa7;" horiz-adv-x="847" d="M84 729q0 154 166 217l-10 6q-125 74 -125 219q0 100 86 167t229 67q193 0 289 -100v-238h-90q0 152 -51.5 209t-149.5 57q-90 0 -133 -41t-43 -102q0 -63 65 -103l308 -172q139 -78 139 -227q0 -74 -46 -134t-128 -91l12 -6q139 -78 139 -228q0 -109 -92 -180.5 t-243 -71.5q-225 0 -316 103v237h86q0 -268 230 -268q88 0 140 41t52 111q0 74 -66 110l-319 189q-129 73 -129 229zM223 748q0 -72 72 -113l205 -119q123 31 123 143q0 72 -66 111l-221 125q-113 -32 -113 -147z" />
<glyph unicode="&#xa8;" horiz-adv-x="774" d="M84 1231q0 45 31.5 76.5t79.5 31.5q45 0 76.5 -31.5t31.5 -76.5t-31.5 -77t-76.5 -32q-47 0 -79 32t-32 77zM471 1231q0 45 32 76.5t77 31.5q47 0 78.5 -31.5t31.5 -76.5t-31.5 -77t-78.5 -32q-45 0 -77 32t-32 77z" />
<glyph unicode="&#xa9;" horiz-adv-x="1490" d="M51 676q0 289 204 491.5t490 202.5q289 0 492 -202.5t203 -491.5q0 -287 -203 -490.5t-492 -203.5q-287 0 -490.5 203.5t-203.5 490.5zM131 676q0 -256 180.5 -438.5t434 -182.5t435 182.5t181.5 438.5t-181.5 439t-435 183t-434 -183t-180.5 -439zM387 645 q0 186 91 329.5t272 143.5q270 0 327 -254h-159q-12 88 -56.5 143.5t-111.5 55.5q-113 0 -164 -88t-51 -230q0 -170 67.5 -302t183.5 -132q63 0 121 40t88 100l58 -33q-106 -172 -301 -172q-188 0 -276.5 116.5t-88.5 282.5z" />
<glyph unicode="&#xaa;" horiz-adv-x="696" d="M49 823q0 117 150 170l247 82v39q0 94 -24.5 136t-92 42t-96 -31.5t-20.5 -84.5l8 -66h-139q-12 63 27 127q78 109 221 109q240 0 239 -230v-387q0 -31 35 -27l47 21l23 -43q-68 -43 -131 -43q-63 2 -90 68q-72 -68 -179 -68q-102 0 -163.5 47t-61.5 139zM180 823 q0 -45 31 -85t84 -40q80 0 154 80l-3 -2v240l-172 -58q-94 -37 -94 -135z" />
<glyph unicode="&#xab;" horiz-adv-x="935" d="M82 477l422 395l37 -36l-275 -359l275 -358l-37 -37zM395 477l422 395l37 -36l-276 -359l276 -358l-37 -37z" />
<glyph unicode="&#xac;" horiz-adv-x="940" d="M51 657v80h838l-2 -458h-80v378h-756z" />
<glyph unicode="&#xad;" horiz-adv-x="616" d="M84 498v80h448v-80h-448z" />
<glyph unicode="&#xae;" horiz-adv-x="1490" d="M51 676q0 289 204 491.5t490 202.5q289 0 492 -202.5t203 -491.5q0 -287 -203 -490.5t-492 -203.5q-287 0 -490.5 203.5t-203.5 490.5zM131 676q0 -256 180.5 -438.5t434 -182.5t435 182.5t181.5 438.5t-181.5 439t-435 183t-434 -183t-180.5 -439zM424 272v64h102v711 h-102v61h391q92 0 153.5 -65.5t61.5 -153.5q0 -82 -57.5 -150.5t-138.5 -74.5l198 -328h105v-64h-211l-232 392h-49v-328h111v-64h-332zM645 729h135q51 0 90 47t39 113q0 72 -37.5 115t-91.5 43h-135v-318z" />
<glyph unicode="&#xaf;" horiz-adv-x="548" d="M51 1087v80h449v-80h-449z" />
<glyph unicode="&#xb0;" horiz-adv-x="593" d="M84 1157q0 84 62.5 145.5t146.5 61.5q88 0 152.5 -61.5t64.5 -145.5q0 -88 -63.5 -151.5t-153.5 -63.5q-84 0 -146.5 63.5t-62.5 151.5zM172 1157q0 -57 33 -96t88 -39q53 0 91 40t38 95q0 49 -38 89t-91 40q-55 0 -88 -39t-33 -90z" />
<glyph unicode="&#xb1;" horiz-adv-x="1026" d="M84 0v80h838v-80h-838zM104 498v80h379v380h80v-380h379v-80h-379v-377h-80v377h-379z" />
<glyph unicode="&#xb2;" horiz-adv-x="677" d="M109 1229q84 129 213 129q88 0 155.5 -50.5t67.5 -144.5q0 -45 -21.5 -88t-44 -68.5t-71.5 -76.5l-154 -162h297v-102h-426v49l192 215q117 133 117 231q0 57 -32.5 95t-84.5 38q-94 0 -151 -94z" />
<glyph unicode="&#xb3;" horiz-adv-x="645" d="M102 739l50 45q55 -72 157 -71q57 0 97 33.5t40 105.5q0 61 -35.5 97t-93.5 36h-43v51q57 0 105.5 35t48.5 98q0 53 -30.5 82t-75.5 29q-90 0 -148 -88l-55 35q78 121 203 121q84 0 148.5 -49.5t64.5 -137.5q0 -86 -84 -145q104 -43 104 -154q0 -102 -74.5 -159.5 t-171.5 -57.5q-127 0 -207 94z" />
<glyph unicode="&#xb4;" horiz-adv-x="559" d="M84 1059l285 301l106 -111l-303 -190h-88z" />
<glyph unicode="&#xb5;" horiz-adv-x="1097" d="M170 -406v1330h156v-629q0 -246 184 -246q88 0 159.5 53.5t71.5 180.5v641h154v-838q2 -43 53 -31l64 25l24 -49q-88 -55 -170 -56q-61 0 -93 37t-32 68v2q-82 -102 -260 -102q-96 0 -155 63v-481z" />
<glyph unicode="&#xb6;" horiz-adv-x="1153" d="M127 995q0 154 101.5 254.5t299.5 100.5h525v-74h-162v-1276h-88v1276h-176v-1276h-88v629h-11q-184 0 -292.5 104t-108.5 262z" />
<glyph unicode="&#xb7;" horiz-adv-x="401" d="M78 485.5q0 51.5 34.5 87t88 35.5t88.5 -35.5t35 -87t-35 -87.5t-88.5 -36t-88 36t-34.5 87.5z" />
<glyph unicode="&#xb8;" horiz-adv-x="473" d="M84 -229l225 198h80l-194 -305z" />
<glyph unicode="&#xb9;" horiz-adv-x="624" d="M137 1202l193 129h32v-624h99v-56h-297v56h96v503l-88 -57z" />
<glyph unicode="&#xba;" horiz-adv-x="628" d="M51 995q0 168 76 261.5t186 93.5q113 0 189 -89.5t76 -265.5q0 -170 -76 -263t-189 -93q-111 0 -186.5 90t-75.5 266zM176 995q0 -295 137 -295q139 0 140 295q0 293 -140 293q-137 0 -137 -293z" />
<glyph unicode="&#xbb;" horiz-adv-x="935" d="M82 119l276 358l-276 359l37 36l422 -395l-422 -395zM395 119l275 358l-275 359l37 36l422 -395l-422 -395z" />
<glyph unicode="&#xbc;" horiz-adv-x="1398" d="M137 1202l193 129h32v-624h99v-56h-297v56h96v503l-88 -57zM385 -53l524 1458h88l-522 -1458h-90zM754 166v55l333 473h70v-438h115v-90h-115v-152h-102v152h-301zM850 256h205v291z" />
<glyph unicode="&#xbd;" horiz-adv-x="1398" d="M137 1202l193 129h32v-624h99v-56h-297v56h96v503l-88 -57zM385 -53l524 1458h88l-522 -1458h-90zM831 563q82 129 213 129q88 0 156 -50t68 -144q0 -45 -21.5 -88t-44 -69t-72.5 -77l-153 -162h297v-102h-426v49l192 215q117 133 117 232q0 57 -32.5 95t-84.5 38 q-94 0 -151 -94z" />
<glyph unicode="&#xbe;" horiz-adv-x="1398" d="M102 739l50 45q55 -72 157 -71q57 0 97 33.5t40 105.5q0 61 -35.5 97t-93.5 36h-43v51q57 0 105.5 35t48.5 98q0 53 -30.5 82t-75.5 29q-90 0 -148 -88l-55 35q78 121 203 121q84 0 148.5 -49.5t64.5 -137.5q0 -86 -84 -145q104 -43 104 -154q0 -102 -74.5 -159.5 t-171.5 -57.5q-127 0 -207 94zM385 -53l524 1458h88l-522 -1458h-90zM754 166v55l333 473h70v-438h115v-90h-115v-152h-102v152h-301zM850 256h205v291z" />
<glyph unicode="&#xbf;" horiz-adv-x="946" d="M102 -115q0 74 28 135.5t50.5 85t79.5 78.5l148 146q86 86 86 168h92q0 -98 -19.5 -139.5t-97.5 -129.5l-141 -161q-68 -82 -68 -211q0 -98 61.5 -165t184.5 -67t193.5 68.5t86.5 245.5h109v-246q-59 -61 -162.5 -99t-222.5 -38q-184 0 -296 93t-112 236zM412 827.5 q0 53.5 35.5 88t87 34.5t87 -34.5t35.5 -88t-35.5 -88t-87 -34.5t-87 34.5t-35.5 88z" />
<glyph unicode="&#xc0;" horiz-adv-x="1314" d="M51 0v74h127l451 1276h92l455 -1276h120v-74h-417v74h120l-151 422h-434l-150 -422h129v-74h-342zM442 575h377l-190 531zM475 1634l107 111l284 -301h-90z" />
<glyph unicode="&#xc1;" horiz-adv-x="1314" d="M51 0v74h127l451 1276h92l455 -1276h120v-74h-417v74h120l-151 422h-434l-150 -422h129v-74h-342zM442 575h377l-190 531zM446 1440l285 301l107 -111l-303 -190h-89z" />
<glyph unicode="&#xc2;" horiz-adv-x="1314" d="M51 0v74h127l451 1276h92l455 -1276h120v-74h-417v74h120l-151 422h-434l-150 -422h129v-74h-342zM362 1444l300 311l299 -311h-80l-219 133l-220 -133h-80zM442 575h377l-190 531z" />
<glyph unicode="&#xc3;" horiz-adv-x="1314" d="M51 0v74h127l451 1276h92l455 -1276h120v-74h-417v74h120l-151 422h-434l-150 -422h129v-74h-342zM375 1442q18 80 65 132t121 52q39 0 128 -41t132 -41q33 0 61.5 22.5t32.5 51.5h50q-39 -184 -177 -184q-43 0 -134 41t-134 41q-33 0 -61.5 -23t-32.5 -51h-51zM442 575 h377l-190 531z" />
<glyph unicode="&#xc4;" horiz-adv-x="1314" d="M51 0v74h127l451 1276h92l455 -1276h120v-74h-417v74h120l-151 422h-434l-150 -422h129v-74h-342zM365 1552q0 45 31.5 77t78.5 32q45 0 77 -32t32 -77t-32 -76.5t-77 -31.5q-47 0 -78.5 31.5t-31.5 76.5zM442 575h377l-190 531zM752 1552q0 45 31.5 77t76.5 32 q47 0 79 -32t32 -77t-32 -76.5t-79 -31.5q-45 0 -76.5 31.5t-31.5 76.5z" />
<glyph unicode="&#xc5;" horiz-adv-x="1314" d="M51 0v74h127l451 1276h92l455 -1276h120v-74h-417v74h120l-151 422h-434l-150 -422h129v-74h-342zM442 575h377l-190 531zM496 1618q0 70 53 123t123 53q76 0 130 -52t54 -124q0 -78 -53 -131t-131 -53q-72 0 -124 54t-52 130zM569 1618q0 -49 28 -82t75 -33 q45 0 77.5 34t32.5 81q0 41 -32.5 74.5t-77.5 33.5q-47 0 -75 -32.5t-28 -75.5z" />
<glyph unicode="&#xc6;" horiz-adv-x="1779" d="M0 0v74h168l551 1202h-131v74h1114v-361h-74l-108 287h-476v-518h330v147h94v-377h-94v148h-330v-602h492l109 286h73v-360h-1026v74h180v420h-417l-193 -420h164v-74h-426zM492 575h380v699h-61z" />
<glyph unicode="&#xc7;" horiz-adv-x="1148" d="M84 614q0 139 31.5 267.5t97.5 240t181.5 179t269.5 67.5q264 0 419 -164v-219h-125q-16 162 -101 240t-193 78q-209 0 -303.5 -146.5t-94.5 -384.5q0 -133 23.5 -257t70 -230.5t125 -170t179.5 -63.5q209 0 337 150l60 -51q-150 -172 -397 -173q-156 0 -273 55.5 t-181.5 149.5t-95 201.5t-30.5 230.5zM385 -272l225 198h80l-194 -305z" />
<glyph unicode="&#xc8;" horiz-adv-x="1138" d="M45 0v74h180v1202h-180v74h1010v-361h-74l-111 287h-473v-518h330v147h94v-377h-94v148h-330v-602h492l108 286h74v-360h-1026zM414 1634l106 111l285 -301h-90z" />
<glyph unicode="&#xc9;" horiz-adv-x="1138" d="M45 0v74h180v1202h-180v74h1010v-361h-74l-111 287h-473v-518h330v147h94v-377h-94v148h-330v-602h492l108 286h74v-360h-1026zM406 1444l284 301l107 -111l-303 -190h-88z" />
<glyph unicode="&#xca;" horiz-adv-x="1138" d="M45 0v74h180v1202h-180v74h1010v-361h-74l-111 287h-473v-518h330v147h94v-377h-94v148h-330v-602h492l108 286h74v-360h-1026zM295 1444l299 311l299 -311h-80l-219 133l-219 -133h-80z" />
<glyph unicode="&#xcb;" horiz-adv-x="1138" d="M45 0v74h180v1202h-180v74h1010v-361h-74l-111 287h-473v-518h330v147h94v-377h-94v148h-330v-602h492l108 286h74v-360h-1026zM303 1552q0 45 32 77t79 32q45 0 76.5 -32t31.5 -77t-31.5 -76.5t-76.5 -31.5q-47 0 -79 31.5t-32 76.5zM690 1552q0 45 32 77t77 32 q47 0 78.5 -32t31.5 -77t-31.5 -76.5t-78.5 -31.5q-45 0 -77 31.5t-32 76.5z" />
<glyph unicode="&#xcc;" horiz-adv-x="718" d="M66 0v74h202v1202h-202v74h585v-74h-211v-1202h211v-74h-585zM164 1628l106 111l285 -301h-90z" />
<glyph unicode="&#xcd;" horiz-adv-x="688" d="M51 0v74h203v1202h-203v74h586v-74h-211v-1202h211v-74h-586zM137 1438l285 301l106 -111l-303 -190h-88z" />
<glyph unicode="&#xce;" horiz-adv-x="700" d="M51 1442l299 311l299 -311h-80l-219 133l-219 -133h-80zM61 0v74h203v1202h-203v74h586v-74h-211v-1202h211v-74h-586z" />
<glyph unicode="&#xcf;" horiz-adv-x="708" d="M51 1550q0 45 32 77t79 32q45 0 76.5 -32t31.5 -77t-31.5 -76.5t-76.5 -31.5q-47 0 -79 31.5t-32 76.5zM68 0v74h202v1202h-202v74h585v-74h-211v-1202h211v-74h-585zM438 1550q0 45 32 77t77 32q47 0 78.5 -32t31.5 -77t-31.5 -76.5t-78.5 -31.5q-45 0 -77 31.5 t-32 76.5z" />
<glyph unicode="&#xd0;" horiz-adv-x="1363" d="M55 0v74h181v585h-181v80h181v537h-181v74h645q154 0 269.5 -53.5t181.5 -147.5t97.5 -209t31.5 -250q0 -102 -19.5 -197.5t-64.5 -186.5t-110.5 -157.5t-165 -107.5t-220.5 -41h-645zM412 74h288q106 0 186.5 53t124.5 144t64.5 195.5t20.5 225.5q0 262 -98.5 423 t-297.5 161h-288v-537h274v-80h-274v-585z" />
<glyph unicode="&#xd1;" horiz-adv-x="1312" d="M55 0v74h164v1200h-164v76h334l615 -1006v930h-166v76h428v-76h-172v-1274h-95l-692 1137v-1063h174v-74h-426zM362 1442q18 80 65.5 132t121.5 52q39 0 128 -41t132 -41q33 0 61.5 22.5t32.5 51.5h49q-39 -184 -176 -184q-43 0 -134 41t-134 41q-33 0 -61.5 -23 t-32.5 -51h-52z" />
<glyph unicode="&#xd2;" d="M84 614q0 139 31.5 267.5t97.5 240t181.5 179t269.5 67.5q123 0 222 -37t164.5 -97t109.5 -143t63.5 -171.5t19.5 -184.5q0 -109 -19.5 -212t-64.5 -203.5t-109.5 -175t-165 -121t-220.5 -46.5q-156 0 -273 55.5t-181.5 149.5t-95 201.5t-30.5 230.5zM266 772 q-2 -180 38 -341t134 -274.5t226 -113.5q211 0 305 146.5t94 392.5q0 182 -41 340.5t-134 269.5t-226 111q-141 0 -233.5 -75t-127.5 -188.5t-35 -267.5zM459 1634l106 111l285 -301h-90z" />
<glyph unicode="&#xd3;" d="M84 614q0 139 31.5 267.5t97.5 240t181.5 179t269.5 67.5q123 0 222 -37t164.5 -97t109.5 -143t63.5 -171.5t19.5 -184.5q0 -109 -19.5 -212t-64.5 -203.5t-109.5 -175t-165 -121t-220.5 -46.5q-156 0 -273 55.5t-181.5 149.5t-95 201.5t-30.5 230.5zM266 772 q-2 -180 38 -341t134 -274.5t226 -113.5q211 0 305 146.5t94 392.5q0 182 -41 340.5t-134 269.5t-226 111q-141 0 -233.5 -75t-127.5 -188.5t-35 -267.5zM440 1444l285 301l106 -111l-303 -190h-88z" />
<glyph unicode="&#xd4;" d="M84 614q0 139 31.5 267.5t97.5 240t181.5 179t269.5 67.5q123 0 222 -37t164.5 -97t109.5 -143t63.5 -171.5t19.5 -184.5q0 -109 -19.5 -212t-64.5 -203.5t-109.5 -175t-165 -121t-220.5 -46.5q-156 0 -273 55.5t-181.5 149.5t-95 201.5t-30.5 230.5zM266 772 q-2 -180 38 -341t134 -274.5t226 -113.5q211 0 305 146.5t94 392.5q0 182 -41 340.5t-134 269.5t-226 111q-141 0 -233.5 -75t-127.5 -188.5t-35 -267.5zM348 1444l299 311l299 -311h-80l-219 133l-219 -133h-80z" />
<glyph unicode="&#xd5;" d="M84 614q0 139 31.5 267.5t97.5 240t181.5 179t269.5 67.5q123 0 222 -37t164.5 -97t109.5 -143t63.5 -171.5t19.5 -184.5q0 -109 -19.5 -212t-64.5 -203.5t-109.5 -175t-165 -121t-220.5 -46.5q-156 0 -273 55.5t-181.5 149.5t-95 201.5t-30.5 230.5zM266 772 q-2 -180 38 -341t134 -274.5t226 -113.5q211 0 305 146.5t94 392.5q0 182 -41 340.5t-134 269.5t-226 111q-141 0 -233.5 -75t-127.5 -188.5t-35 -267.5zM367 1440q18 80 65 132t121 52q39 0 128 -41t132 -41q33 0 61.5 22.5t32.5 51.5h49q-39 -184 -176 -184 q-43 0 -134 40.5t-134 40.5q-33 0 -61.5 -22.5t-32.5 -50.5h-51z" />
<glyph unicode="&#xd6;" d="M84 614q0 139 31.5 267.5t97.5 240t181.5 179t269.5 67.5q123 0 222 -37t164.5 -97t109.5 -143t63.5 -171.5t19.5 -184.5q0 -109 -19.5 -212t-64.5 -203.5t-109.5 -175t-165 -121t-220.5 -46.5q-156 0 -273 55.5t-181.5 149.5t-95 201.5t-30.5 230.5zM266 772 q-2 -180 38 -341t134 -274.5t226 -113.5q211 0 305 146.5t94 392.5q0 182 -41 340.5t-134 269.5t-226 111q-141 0 -233.5 -75t-127.5 -188.5t-35 -267.5zM360 1548q0 45 32 77t79 32q45 0 77 -32t32 -77t-32 -76.5t-77 -31.5q-47 0 -79 31.5t-32 76.5zM748 1548 q0 45 31.5 77t76.5 32q47 0 79 -32t32 -77t-32 -76.5t-79 -31.5q-45 0 -76.5 31.5t-31.5 76.5z" />
<glyph unicode="&#xd7;" horiz-adv-x="817" d="M84 193l266 266l-266 268l55 55l269 -266l268 268l55 -55l-268 -270l268 -269l-57 -55l-266 268l-269 -266z" />
<glyph unicode="&#xd8;" d="M84 614q0 139 31.5 267.5t97.5 240t181.5 179t269.5 67.5q219 0 366 -115l105 150h102l-150 -207q156 -172 156 -461q0 -109 -19.5 -212t-64.5 -203.5t-109.5 -175t-165 -121t-220.5 -46.5q-219 0 -361 109l-100 -141h-101l140 196q-158 172 -158 473zM266 772 q0 -272 84 -477l588 829q-106 178 -276 179q-209 0 -302.5 -146.5t-93.5 -384.5zM393 215q104 -172 271 -172q211 0 305 146.5t94 392.5q0 266 -84 460z" />
<glyph unicode="&#xd9;" horiz-adv-x="1302" d="M45 1276v74h500v-74h-164v-887q0 -158 78 -244t200 -86q139 0 239.5 81t100.5 227v909h-161v74h417v-74h-161v-907q0 -176 -118 -284t-316.5 -108t-324.5 109t-126 283v907h-164zM494 1632l106 111l285 -301h-90z" />
<glyph unicode="&#xda;" horiz-adv-x="1302" d="M45 1276v74h500v-74h-164v-887q0 -158 78 -244t200 -86q139 0 239.5 81t100.5 227v909h-161v74h417v-74h-161v-907q0 -176 -118 -284t-316.5 -108t-324.5 109t-126 283v907h-164zM477 1442l285 301l106 -111l-303 -190h-88z" />
<glyph unicode="&#xdb;" horiz-adv-x="1302" d="M45 1276v74h500v-74h-164v-887q0 -158 78 -244t200 -86q139 0 239.5 81t100.5 227v909h-161v74h417v-74h-161v-907q0 -176 -118 -284t-316.5 -108t-324.5 109t-126 283v907h-164zM369 1444l299 311l299 -311h-80l-219 133l-219 -133h-80z" />
<glyph unicode="&#xdc;" horiz-adv-x="1302" d="M45 1276v74h500v-74h-164v-887q0 -158 78 -244t200 -86q139 0 239.5 81t100.5 227v909h-161v74h417v-74h-161v-907q0 -176 -118 -284t-316.5 -108t-324.5 109t-126 283v907h-164zM371 1552q0 45 31.5 77t78.5 32q45 0 77 -32t32 -77t-32 -76.5t-77 -31.5 q-47 0 -78.5 31.5t-31.5 76.5zM758 1552q0 45 31.5 77t76.5 32q47 0 79 -32t32 -77t-32 -76.5t-79 -31.5q-45 0 -76.5 31.5t-31.5 76.5z" />
<glyph unicode="&#xdd;" horiz-adv-x="1226" d="M-2 1276v74h545v-74h-172l282 -580l299 580h-176v74h432v-74h-170l-338 -655v-547h205v-74h-577v74h200v493l-350 709h-180zM418 1458l284 301l107 -110l-303 -191h-88z" />
<glyph unicode="&#xde;" horiz-adv-x="1153" d="M55 0v74h164v1202h-164v74h500v-74h-164v-215h260q199 0 300.5 -100.5t101.5 -253.5q0 -158 -108.5 -262.5t-293.5 -104.5h-260v-266h164v-74h-500zM391 418h236q100 0 166.5 81t66.5 203q0 127 -63.5 206t-169.5 79h-236v-569z" />
<glyph unicode="&#xdf;" horiz-adv-x="1064" d="M31 0v63v-63zM31 0v63h129v945q0 156 88 249t244 93q178 0 261 -85t83 -204q0 -39 -13.5 -74t-39 -64.5t-46 -48t-52.5 -41t-38 -28.5q-55 -45 -55 -94q0 -47 67 -90l203 -146q135 -92 135 -233q0 -106 -95 -184t-234 -78q-121 0 -224 81l48 54q86 -72 176 -72 q78 0 125 49t47 121q0 80 -60 125l-174 131q-39 29 -60.5 50.5t-41 64.5t-19.5 98q0 82 60 141q6 6 45 42t50 51.5t27.5 54.5t16.5 86q0 229 -192 229q-82 0 -129.5 -47t-47.5 -137v-1102h-284z" />
<glyph unicode="&#xe0;" horiz-adv-x="964" d="M92 221q0 68 51.5 128.5t153.5 94.5l340 111v74q0 131 -36 191.5t-130 60.5q-90 0 -132 -46.5t-32 -119.5l8 -86h-176q-14 82 37 166q96 150 297 149q141 0 231.5 -72.5t90.5 -238.5v-537q0 -57 59 -43l66 31l24 -49q-70 -59 -162 -60q-51 0 -85.5 26t-45.5 50l-10 25 q-96 -100 -250 -101q-137 0 -218 59.5t-81 186.5zM262 221q0 -59 47 -114.5t117 -55.5q111 0 211 111v325l-242 -79q-133 -48 -133 -187zM287 1249l106 111l285 -301h-90z" />
<glyph unicode="&#xe1;" horiz-adv-x="964" d="M92 221q0 68 51.5 128.5t153.5 94.5l340 111v74q0 131 -36 191.5t-130 60.5q-90 0 -132 -46.5t-32 -119.5l8 -86h-176q-14 82 37 166q96 150 297 149q141 0 231.5 -72.5t90.5 -238.5v-537q0 -57 59 -43l66 31l24 -49q-70 -59 -162 -60q-51 0 -85.5 26t-45.5 50l-10 25 q-96 -100 -250 -101q-137 0 -218 59.5t-81 186.5zM262 221q0 -59 47 -114.5t117 -55.5q111 0 211 111v325l-242 -79q-133 -48 -133 -187zM281 1059l284 301l107 -111l-303 -190h-88z" />
<glyph unicode="&#xe2;" horiz-adv-x="964" d="M92 221q0 68 51.5 128.5t153.5 94.5l340 111v74q0 131 -36 191.5t-130 60.5q-90 0 -132 -46.5t-32 -119.5l8 -86h-176q-14 82 37 166q96 150 297 149q141 0 231.5 -72.5t90.5 -238.5v-537q0 -57 59 -43l66 31l24 -49q-70 -59 -162 -60q-51 0 -85.5 26t-45.5 50l-10 25 q-96 -100 -250 -101q-137 0 -218 59.5t-81 186.5zM172 1075l299 311l299 -311h-80l-219 133l-219 -133h-80zM262 221q0 -59 47 -114.5t117 -55.5q111 0 211 111v325l-242 -79q-133 -48 -133 -187z" />
<glyph unicode="&#xe3;" horiz-adv-x="964" d="M92 221q0 68 51.5 128.5t153.5 94.5l340 111v74q0 131 -36 191.5t-130 60.5q-90 0 -132 -46.5t-32 -119.5l8 -86h-176q-14 82 37 166q96 150 297 149q141 0 231.5 -72.5t90.5 -238.5v-537q0 -57 59 -43l66 31l24 -49q-70 -59 -162 -60q-51 0 -85.5 26t-45.5 50l-10 25 q-96 -100 -250 -101q-137 0 -218 59.5t-81 186.5zM195 1130q18 80 65 132.5t121 52.5q39 0 128 -41t132 -41q33 0 61.5 22.5t32.5 51.5h49q-39 -184 -176 -185q-43 0 -134 41t-134 41q-33 0 -61.5 -22.5t-32.5 -51.5h-51zM262 221q0 -59 47 -114.5t117 -55.5q111 0 211 111 v325l-242 -79q-133 -48 -133 -187z" />
<glyph unicode="&#xe4;" horiz-adv-x="964" d="M92 221q0 68 51.5 128.5t153.5 94.5l340 111v74q0 131 -36 191.5t-130 60.5q-90 0 -132 -46.5t-32 -119.5l8 -86h-176q-14 82 37 166q96 150 297 149q141 0 231.5 -72.5t90.5 -238.5v-537q0 -57 59 -43l66 31l24 -49q-70 -59 -162 -60q-51 0 -85.5 26t-45.5 50l-10 25 q-96 -100 -250 -101q-137 0 -218 59.5t-81 186.5zM168 1231q0 45 31.5 76.5t79.5 31.5q45 0 76.5 -31.5t31.5 -76.5t-31.5 -77t-76.5 -32q-47 0 -79 32t-32 77zM262 221q0 -59 47 -114.5t117 -55.5q111 0 211 111v325l-242 -79q-133 -48 -133 -187zM555 1231q0 45 31.5 76.5 t77.5 31.5q47 0 78.5 -31.5t31.5 -76.5t-31.5 -77t-78.5 -32q-45 0 -77 32t-32 77z" />
<glyph unicode="&#xe5;" horiz-adv-x="964" d="M92 221q0 68 51.5 128.5t153.5 94.5l340 111v74q0 131 -36 191.5t-130 60.5q-90 0 -132 -46.5t-32 -119.5l8 -86h-176q-14 82 37 166q96 150 297 149q141 0 231.5 -72.5t90.5 -238.5v-537q0 -57 59 -43l66 31l24 -49q-70 -59 -162 -60q-51 0 -85.5 26t-45.5 50l-10 25 q-96 -100 -250 -101q-137 0 -218 59.5t-81 186.5zM262 221q0 -59 47 -114.5t117 -55.5q111 0 211 111v325l-242 -79q-133 -48 -133 -187zM283 1243q0 72 53 124t123 52q76 0 130 -52t54 -124q0 -76 -53 -130t-131 -54q-72 0 -124 54t-52 130zM356 1243q0 -49 28 -82t75 -33 q45 0 77.5 34t32.5 81q0 41 -32.5 75t-77.5 34q-47 0 -75 -33t-28 -76z" />
<glyph unicode="&#xe6;" horiz-adv-x="1503" d="M82 227q0 164 205 230l346 104v68q0 133 -35 193.5t-133 60.5q-88 0 -132 -55.5t-36 -110.5l6 -53h-176q4 72 39 131q92 150 305 149q209 0 279 -127q113 127 286 127q197 0 291 -118.5t94 -329.5h-622q-2 -164 76.5 -304.5t201.5 -140.5q78 0 146.5 44t101.5 110l66 -37 q-115 -190 -347 -191q-207 0 -315 136q-117 -135 -326 -136q-139 0 -230 63.5t-91 186.5zM252 229q0 -66 51 -123t129 -57q170 0 252 135q-51 100 -51 238v72l-248 -76q-133 -39 -133 -189zM809 563h432q14 319 -194 320q-230 -1 -238 -320z" />
<glyph unicode="&#xe7;" horiz-adv-x="942" d="M106 420q0 129 38 242.5t133.5 197.5t232.5 84q301 0 362 -258h-184q-10 86 -58 141.5t-120 55.5q-125 0 -181.5 -98.5t-56.5 -256.5q0 -186 75 -329.5t206 -143.5q98 0 156.5 60.5t76.5 130.5l66 -17q-10 -37 -30.5 -73.5t-59.5 -79.5t-103.5 -71t-146.5 -28 q-143 0 -237.5 68t-131.5 163t-37 212zM242 -272l225 198h80l-195 -305z" />
<glyph unicode="&#xe8;" horiz-adv-x="974" d="M102 422q0 94 24 183t70 167t125.5 125t184.5 47q197 0 292 -118.5t95 -329.5h-625q0 -162 79 -303.5t204 -141.5q104 0 167.5 62.5t82.5 132.5l65 -17q-27 -88 -112.5 -168.5t-239.5 -83.5q-143 0 -239.5 68t-134.5 165t-38 212zM268 563h432q14 319 -194 320 q-228 -1 -238 -320zM299 1249l107 111l284 -301h-90z" />
<glyph unicode="&#xe9;" horiz-adv-x="974" d="M102 422q0 94 24 183t70 167t125.5 125t184.5 47q197 0 292 -118.5t95 -329.5h-625q0 -162 79 -303.5t204 -141.5q104 0 167.5 62.5t82.5 132.5l65 -17q-27 -88 -112.5 -168.5t-239.5 -83.5q-143 0 -239.5 68t-134.5 165t-38 212zM268 563h432q14 319 -194 320 q-228 -1 -238 -320zM338 1059l285 301l106 -111l-303 -190h-88z" />
<glyph unicode="&#xea;" horiz-adv-x="974" d="M102 422q0 94 24 183t70 167t125.5 125t184.5 47q197 0 292 -118.5t95 -329.5h-625q0 -162 79 -303.5t204 -141.5q104 0 167.5 62.5t82.5 132.5l65 -17q-27 -88 -112.5 -168.5t-239.5 -83.5q-143 0 -239.5 68t-134.5 165t-38 212zM195 1075l299 311l299 -311h-80 l-219 133l-220 -133h-79zM268 563h432q14 319 -194 320q-228 -1 -238 -320z" />
<glyph unicode="&#xeb;" horiz-adv-x="974" d="M102 422q0 94 24 183t70 167t125.5 125t184.5 47q197 0 292 -118.5t95 -329.5h-625q0 -162 79 -303.5t204 -141.5q104 0 167.5 62.5t82.5 132.5l65 -17q-27 -88 -112.5 -168.5t-239.5 -83.5q-143 0 -239.5 68t-134.5 165t-38 212zM205 1231q0 45 31.5 76.5t78.5 31.5 q45 0 77 -31.5t32 -76.5t-32 -77t-77 -32q-47 0 -78.5 32t-31.5 77zM268 563h432q14 319 -194 320q-228 -1 -238 -320zM592 1231q0 45 31.5 76.5t76.5 31.5q47 0 79 -31.5t32 -76.5t-31.5 -77t-79.5 -32q-45 0 -76.5 32t-31.5 77z" />
<glyph unicode="&#xec;" horiz-adv-x="585" d="M-16 1249l106 111l285 -301h-90zM51 0v63h166v801h-149v60l303 18v-879h164v-63h-484z" />
<glyph unicode="&#xed;" horiz-adv-x="595" d="M61 0v63h166v801h-149v60l303 18v-879h164v-63h-484zM94 1059l285 301l106 -111l-303 -190h-88z" />
<glyph unicode="&#xee;" horiz-adv-x="638" d="M20 1075l299 311l299 -311h-79l-220 133l-219 -133h-80zM86 0v63h166v801h-150v60l304 18v-879h163v-63h-483z" />
<glyph unicode="&#xef;" horiz-adv-x="647" d="M20 1231q0 45 32 76.5t79 31.5q45 0 77 -31.5t32 -76.5t-32 -77t-77 -32q-47 0 -79 32t-32 77zM86 0v63h166v801h-150v60l304 18v-879h163v-63h-483zM408 1231q0 45 31.5 76.5t76.5 31.5q47 0 79 -31.5t32 -76.5t-32 -77t-79 -32q-45 0 -76.5 32t-31.5 77z" />
<glyph unicode="&#xf0;" horiz-adv-x="1019" d="M102 422q0 129 38 242.5t133.5 197.5t232.5 84q115 0 205 -98q-41 174 -164 301l-197 -107l-37 56l183 98q-145 115 -330 115v63q221 0 412 -135l280 154l33 -56l-258 -141q279 -244 278 -688q0 -127 -41 -244t-137 -202t-227 -85q-209 0 -306.5 130.5t-97.5 314.5z M268 530q0 -121 23.5 -228t79 -185t135.5 -78q240 0 239 360q0 125 -23.5 231.5t-79.5 180.5t-136 74q-125 0 -181.5 -98.5t-56.5 -256.5z" />
<glyph unicode="&#xf1;" horiz-adv-x="1087" d="M61 0v61h132v801h-132v60l285 20v-100q82 102 258 102q178 0 246 -86t68 -229v-568h129v-61h-418v61h133v568q0 246 -187 245q-86 0 -157.5 -54t-71.5 -179v-580h131v-61h-416zM250 1130q18 80 65 132.5t121 52.5q39 0 128 -41t132 -41q33 0 61.5 22.5t33.5 51.5h49 q-39 -184 -176 -185q-43 0 -134.5 41t-134.5 41q-33 0 -61.5 -22.5t-32.5 -51.5h-51z" />
<glyph unicode="&#xf2;" horiz-adv-x="1013" d="M102 422q0 129 38 242.5t133.5 197.5t232.5 84q141 0 235.5 -67.5t132 -162.5t37.5 -210q0 -94 -23.5 -184.5t-70.5 -169t-128 -127t-183 -48.5q-209 0 -306.5 130.5t-97.5 314.5zM268 530q0 -121 23.5 -228t79 -185t135.5 -78q240 0 239 360q0 125 -23.5 231.5 t-79.5 180.5t-136 74q-125 0 -181.5 -98.5t-56.5 -256.5zM303 1249l107 111l284 -301h-90z" />
<glyph unicode="&#xf3;" horiz-adv-x="1013" d="M102 422q0 129 38 242.5t133.5 197.5t232.5 84q141 0 235.5 -67.5t132 -162.5t37.5 -210q0 -94 -23.5 -184.5t-70.5 -169t-128 -127t-183 -48.5q-209 0 -306.5 130.5t-97.5 314.5zM268 530q0 -121 23.5 -228t79 -185t135.5 -78q240 0 239 360q0 125 -23.5 231.5 t-79.5 180.5t-136 74q-125 0 -181.5 -98.5t-56.5 -256.5zM322 1059l284 301l107 -111l-303 -190h-88z" />
<glyph unicode="&#xf4;" horiz-adv-x="1009" d="M100 422q0 129 38 242.5t133.5 197.5t232.5 84q141 0 235.5 -67.5t132 -162.5t37.5 -210q0 -94 -23.5 -184.5t-70.5 -169t-128 -127t-183 -48.5q-209 0 -306.5 130.5t-97.5 314.5zM199 1075l299 311l299 -311h-80l-219 133l-219 -133h-80zM266 530q0 -121 23.5 -228 t79 -185t135.5 -78q240 0 239 360q0 125 -23.5 231.5t-79.5 180.5t-136 74q-125 0 -181.5 -98.5t-56.5 -256.5z" />
<glyph unicode="&#xf5;" horiz-adv-x="1009" d="M100 422q0 129 38 242.5t133.5 197.5t232.5 84q141 0 235.5 -67.5t132 -162.5t37.5 -210q0 -94 -23.5 -184.5t-70.5 -169t-128 -127t-183 -48.5q-209 0 -306.5 130.5t-97.5 314.5zM203 1130q18 80 65 132.5t121 52.5q39 0 128 -41t132 -41q33 0 61.5 22.5t32.5 51.5h50 q-39 -184 -177 -185q-43 0 -134 41t-134 41q-33 0 -61.5 -22.5t-32.5 -51.5h-51zM266 530q0 -121 23.5 -228t79 -185t135.5 -78q240 0 239 360q0 125 -23.5 231.5t-79.5 180.5t-136 74q-125 0 -181.5 -98.5t-56.5 -256.5z" />
<glyph unicode="&#xf6;" horiz-adv-x="1013" d="M102 422q0 129 38 242.5t133.5 197.5t232.5 84q141 0 235.5 -67.5t132 -162.5t37.5 -210q0 -94 -23.5 -184.5t-70.5 -169t-128 -127t-183 -48.5q-209 0 -306.5 130.5t-97.5 314.5zM199 1231q0 45 31.5 76.5t78.5 31.5q45 0 77 -31.5t32 -76.5t-32 -77t-77 -32 q-47 0 -78.5 32t-31.5 77zM268 530q0 -121 23.5 -228t79 -185t135.5 -78q240 0 239 360q0 125 -23.5 231.5t-79.5 180.5t-136 74q-125 0 -181.5 -98.5t-56.5 -256.5zM586 1231q0 45 31.5 76.5t76.5 31.5q47 0 79 -31.5t32 -76.5t-32 -77t-79 -32q-45 0 -76.5 32t-31.5 77z " />
<glyph unicode="&#xf7;" horiz-adv-x="1005" d="M84 420v76h838v-76h-838zM367 92q0 53 34.5 88t85.5 35q53 0 88 -36t35 -87t-34.5 -86t-88 -35t-87 35t-33.5 86zM367 809q0 51 33.5 86t87 35t88 -35t34.5 -86t-34.5 -87t-88.5 -36q-51 0 -85.5 35t-34.5 88z" />
<glyph unicode="&#xf8;" horiz-adv-x="1013" d="M102 -168l136 236q-135 119 -136 352q0 129 38 242.5t133.5 197.5t232.5 84q115 0 205 -47l108 188h90l-133 -233q135 -121 135 -348q0 -94 -23.5 -184.5t-70.5 -169t-128 -127t-183 -48.5q-119 0 -205 45l-108 -188h-91zM268 528q0 -186 49 -317l336 586q-59 86 -147 86 q-125 0 -181.5 -98.5t-56.5 -256.5zM360 125q61 -88 146 -88q240 0 239 360q0 188 -49 316z" />
<glyph unicode="&#xf9;" horiz-adv-x="1087" d="M41 862v62h285v-629q0 -246 184 -246q88 0 159.5 53.5t71.5 180.5v579h-131v62h285v-863h131v-59l-285 -20v100q-82 -102 -260 -102t-244.5 86t-66.5 229v567h-129zM309 1249l107 111l284 -301h-90z" />
<glyph unicode="&#xfa;" horiz-adv-x="1087" d="M41 862v62h285v-629q0 -246 184 -246q88 0 159.5 53.5t71.5 180.5v579h-131v62h285v-863h131v-59l-285 -20v100q-82 -102 -260 -102t-244.5 86t-66.5 229v567h-129zM297 1059l285 301l106 -111l-303 -190h-88z" />
<glyph unicode="&#xfb;" horiz-adv-x="1087" d="M41 862v62h285v-629q0 -246 184 -246q88 0 159.5 53.5t71.5 180.5v579h-131v62h285v-863h131v-59l-285 -20v100q-82 -102 -260 -102t-244.5 86t-66.5 229v567h-129zM209 1075l299 311l299 -311h-80l-219 133l-219 -133h-80z" />
<glyph unicode="&#xfc;" horiz-adv-x="1087" d="M41 862v62h285v-629q0 -246 184 -246q88 0 159.5 53.5t71.5 180.5v579h-131v62h285v-863h131v-59l-285 -20v100q-82 -102 -260 -102t-244.5 86t-66.5 229v567h-129zM207 1231q0 45 31.5 76.5t78.5 31.5q45 0 77 -31.5t32 -76.5t-32 -77t-77 -32q-47 0 -78.5 32t-31.5 77z M594 1231q0 45 31.5 76.5t76.5 31.5q47 0 79 -31.5t32 -76.5t-31.5 -77t-79.5 -32q-45 0 -76.5 32t-31.5 77z" />
<glyph unicode="&#xfd;" horiz-adv-x="995" d="M0 -375l47 56q76 -70 160 -70q104 0 164 151l92 242l-354 858h-107v62h420v-62h-133l256 -641l239 641h-125v62h314v-62h-109l-418 -1112q-41 -111 -96 -161t-143 -50q-109 0 -207 86zM301 1059l285 301l106 -111l-303 -190h-88z" />
<glyph unicode="&#xfe;" horiz-adv-x="1077" d="M10 -377h150v1731h-148v57l301 21v-592q86 104 248 104q209 0 311.5 -125t102.5 -313q0 -129 -38 -244t-133 -200t-233 -85q-168 0 -258 111v-465h148v-61h-451v61zM313 276q0 -109 76 -169t182 -60q240 0 240 354q0 205 -62.5 338t-187.5 133q-100 0 -172 -54t-76 -175 v-367z" />
<glyph unicode="&#xff;" horiz-adv-x="999" d="M-16 -375l47 56q76 -70 159 -70q104 0 164 151l92 242l-354 858h-106v62h420v-62h-134l256 -641l240 641h-125v62h313v-62h-108l-418 -1112q-41 -111 -96 -161t-144 -50q-108 0 -206 86zM182 1231q0 45 32 76.5t79 31.5q45 0 76.5 -31.5t31.5 -76.5t-31.5 -77t-76.5 -32 q-47 0 -79 32t-32 77zM569 1231q0 45 32 76.5t77 31.5q47 0 78.5 -31.5t31.5 -76.5t-31.5 -77t-78.5 -32q-45 0 -77 32t-32 77z" />
<glyph unicode="&#x152;" horiz-adv-x="1886" d="M84 616q0 139 31.5 267.5t97.5 240t181.5 179t269.5 67.5q90 0 178 -20h966v-361h-75l-109 287h-473v-518h330v147h94v-377h-94v148h-330v-602h489l111 286h74v-360h-1000q-78 -20 -161 -20q-156 0 -273 55t-181.5 149.5t-95 201.5t-30.5 230zM266 774q-2 -180 38 -341 t134 -274.5t226 -113.5q238 0 313 160v848q-35 115 -105.5 183.5t-209.5 68.5q-141 0 -233.5 -75t-127.5 -188.5t-35 -267.5z" />
<glyph unicode="&#x153;" horiz-adv-x="1617" d="M102 422q0 92 22.5 179t68 167t127 128t186.5 48q227 0 332 -166q14 23 32 45q106 121 281 121q197 0 291 -118.5t94 -329.5h-623q-2 -164 77 -304.5t202 -140.5q78 0 146.5 44t101.5 110l65 -37q-115 -190 -346 -191q-233 0 -342 170q-29 -43 -35 -49 q-106 -121 -276 -121q-209 0 -306.5 130.5t-97.5 314.5zM268 530q-2 -121 21.5 -229t80 -185t136.5 -77q240 0 239 360q0 197 -61 340.5t-178 143.5q-125 0 -181.5 -97.5t-56.5 -255.5zM913 563h433q14 319 -195 320q-230 -1 -238 -320z" />
<glyph unicode="&#x178;" horiz-adv-x="1226" d="M-2 1276v74h545v-74h-172l282 -580l299 580h-176v74h432v-74h-170l-338 -655v-547h205v-74h-577v74h200v493l-350 709h-180zM336 1548q0 45 31.5 77t78.5 32q45 0 77 -32t32 -77t-31.5 -76.5t-77.5 -31.5q-47 0 -78.5 31.5t-31.5 76.5zM723 1548q0 45 31.5 77t76.5 32 q47 0 79 -32t32 -77t-31.5 -76.5t-79.5 -31.5q-45 0 -76.5 31.5t-31.5 76.5z" />
<glyph unicode="&#x2c6;" horiz-adv-x="765" d="M84 1075l299 311l299 -311h-80l-219 133l-219 -133h-80z" />
<glyph unicode="&#x2dc;" horiz-adv-x="757" d="M84 1130q18 80 65.5 132.5t120.5 52.5q39 0 128 -41t132 -41q33 0 62 22.5t33 51.5h49q-39 -184 -176 -185q-43 0 -134.5 41t-134.5 41q-33 0 -61.5 -22.5t-32.5 -51.5h-51z" />
<glyph unicode="&#x2013;" horiz-adv-x="837" d="M0 498v80h838v-80h-838z" />
<glyph unicode="&#x2014;" horiz-adv-x="1726" d="M49 498v80h1628v-80h-1628z" />
<glyph unicode="&#x2018;" horiz-adv-x="450" d="M102 1124q0 133 88 222q63 63 125 90l41 -41q-57 -37 -88 -68q-59 -59 -57 -133q8 2 25 2q45 0 78.5 -35t33.5 -82q0 -49 -33.5 -81.5t-83.5 -32.5q-55 0 -92 38.5t-37 120.5z" />
<glyph unicode="&#x2019;" horiz-adv-x="450" d="M94 1012q57 37 88 67q59 59 58 133q-8 -2 -25 -2q-45 0 -79 35t-34 82q0 49 34 82t83 33q55 0 92 -39t37 -121q0 -133 -88 -221q-63 -63 -125 -90z" />
<glyph unicode="&#x201a;" horiz-adv-x="450" d="M94 -221q57 37 88 67q59 59 58 134q-8 -2 -25 -3q-45 0 -79 35t-34 82q0 49 34 82t83 33q55 0 92 -39t37 -121q0 -133 -88 -221q-63 -63 -125 -90z" />
<glyph unicode="&#x201c;" horiz-adv-x="774" d="M102 1124q0 133 88 222q63 63 125 90l41 -41q-57 -37 -88 -68q-59 -59 -57 -133q8 2 25 2q45 0 78.5 -35t33.5 -82q0 -49 -33.5 -81.5t-83.5 -32.5q-55 0 -92 38.5t-37 120.5zM426 1124q0 133 88 222q63 63 125 90l41 -41q-57 -37 -88 -68q-59 -59 -57 -133q8 2 24 2 q45 0 79 -35t34 -82q0 -49 -34 -81.5t-83 -32.5q-55 0 -92 38.5t-37 120.5z" />
<glyph unicode="&#x201d;" horiz-adv-x="774" d="M94 1012q57 37 88 67q59 59 58 133q-8 -2 -25 -2q-45 0 -79 35t-34 82q0 49 34 82t83 33q55 0 92 -39t37 -121q0 -133 -88 -221q-63 -63 -125 -90zM418 1012q57 37 88 67q59 59 57 133q-8 -2 -24 -2q-45 0 -79 35t-34 82q0 49 34 82t83 33q55 0 92 -39t37 -121 q0 -133 -88 -221q-63 -63 -125 -90z" />
<glyph unicode="&#x201e;" horiz-adv-x="774" d="M94 -221q57 37 88 67q59 59 58 134q-8 -2 -25 -3q-45 0 -79 35t-34 82q0 49 34 82t83 33q55 0 92 -39t37 -121q0 -133 -88 -221q-63 -63 -125 -90zM418 -221q57 37 88 67q59 59 57 134q-8 -2 -24 -3q-45 0 -79 35t-34 82q0 49 34 82t83 33q55 0 92 -39t37 -121 q0 -133 -88 -221q-63 -63 -125 -90z" />
<glyph unicode="&#x2022;" horiz-adv-x="495" d="M94 616.5q0 65.5 44 110.5t109.5 45t110.5 -45t45 -110.5t-45 -110.5t-110.5 -45t-109.5 45t-44 110.5z" />
<glyph unicode="&#x2026;" horiz-adv-x="1282" d="M96 94q0 53 36 88t87 35t86 -35t35 -88t-35 -88t-86 -35t-87 35t-36 88zM518 94q0 53 36 88t87 35t87 -35t36 -88t-36 -88t-87 -35t-87 35t-36 88zM942 94q0 53 35 88t86 35t87 -35t36 -88t-36 -88t-87 -35t-86 35t-35 88z" />
<glyph unicode="&#x2039;" horiz-adv-x="622" d="M82 477l422 395l37 -36l-275 -359l275 -358l-37 -37z" />
<glyph unicode="&#x203a;" horiz-adv-x="622" d="M82 119l276 358l-276 359l39 36l420 -395l-420 -395z" />
<glyph unicode="&#x20ac;" horiz-adv-x="1232" d="M0 502v82h170v30q0 88 8 152h-178v82h190q49 229 188.5 374.5t371.5 145.5q266 0 417 -164v-219h-123q-16 162 -101 240t-195 78q-190 0 -284.5 -124t-109.5 -331h486v-82h-488q0 -94 13 -182h475v-82h-463q41 -201 134 -326t239 -125q209 0 337 150l60 -51 q-150 -172 -397 -173q-137 0 -245 43t-174.5 119t-104.5 166t-50 197h-176z" />
<glyph unicode="&#x2122;" horiz-adv-x="1173" d="M55 1188v153h412v-153h-47l-39 104h-78v-434h70v-49h-221v49h67v434h-78q-8 -16 -21.5 -53t-19.5 -51h-45zM510 809v49h59v434h-59v49h149l156 -403l152 403h151v-49h-59v-434h59v-49h-209v49h62v336l-142 -383l-57 -2l-147 389v-340h59v-49h-174z" />
<glyph unicode="&#xe000;" horiz-adv-x="925" d="M0 925h925v-925h-925v925z" />
<glyph unicode="&#xfb01;" horiz-adv-x="1277" d="M61 0v61h150v801h-150v62h150v184q0 166 94 248t219 82t221 -84l-47 -49q-76 72 -174 71q-160 0 -159 -231v-221h282v-62h-282v-801h198v-61h-502zM721 0v61h166v801h-150v60l303 20v-881h166v-61h-485zM840 1229q0 53 34.5 88t88 35t88 -35t34.5 -88t-34.5 -88t-88 -35 t-88 35t-34.5 88z" />
<glyph unicode="&#xfb02;" horiz-adv-x="1212" d="M61 0v61h150v801h-150v62h150v184q0 166 94 248t219 82t221 -84l-47 -49q-76 72 -174 71q-160 0 -159 -231v-221h282v-62h-282v-801h198v-61h-502zM696 1356v57l303 21v-1373h131v-61h-419v61h133v1295h-148z" />
<glyph unicode="&#xfb03;" horiz-adv-x="1939" d="M1392 0v61h166v801h-149v60l303 20v-881h166v-61h-486zM1511 1229q0 53 35 88t88 35t88 -35t35 -88t-35 -88t-88 -35t-88 35t-35 88zM727 0v61h150v801h-150v62h150v184q0 166 94 248t219 82t221 -84l-47 -49q-76 72 -174 71q-160 0 -159 -231v-221h282v-62h-282v-801 h198v-61h-502zM61 0v61h150v801h-150v62h150v184q0 166 94 248t219 82t221 -84l-47 -49q-76 72 -174 71q-160 0 -159 -231v-221h282v-62h-282v-801h198v-61h-502z" />
<glyph unicode="&#xfb04;" horiz-adv-x="1857" d="M1362 1356v57l303 21v-1373h131v-61h-420v61h133v1295h-147zM727 0v61h150v801h-150v62h150v184q0 166 94 248t219 82t221 -84l-47 -49q-76 72 -174 71q-160 0 -159 -231v-221h282v-62h-282v-801h198v-61h-502zM61 0v61h150v801h-150v62h150v184q0 166 94 248t219 82 t221 -84l-47 -49q-76 72 -174 71q-160 0 -159 -231v-221h282v-62h-282v-801h198v-61h-502z" />
</font>
</defs>
</svg>
